<?xml version="1.0" encoding="UTF-8" standalone="no"?>
<!DOCTYPE svg PUBLIC "-//W3C//DTD SVG 1.1//EN" "http://www.w3.org/Graphics/SVG/1.1/DTD/svg11.dtd">
<svg xmlns="http://www.w3.org/2000/svg">
<metadata>Generated by IcoMoon</metadata>
<defs>
<font id="PictoPro" horiz-adv-x="1024">
<font-face units-per-em="1024" ascent="960" descent="-64"/>
<missing-glyph horiz-adv-x="1024"/>
<glyph unicode=" " d="" horiz-adv-x="512"/>
<glyph unicode="" d="M990.272 926.215c-21.81 21.781-50.851 33.785-81.831 33.785s-60.021-12.004-81.802-33.785l-211.592-211.592-452.832 177.199c-10.674 4.136-22.88 1.649-30.979-6.508l-81.831-81.802c-5.872-5.872-8.938-13.942-8.417-22.273 0.521-8.273 4.57-15.938 11.107-21.029l342.278-266.232-149.344-149.344-147.724 36.909c-9.893 2.545-20.277-0.434-27.479-7.607l-61.351-61.351c-5.872-5.872-8.938-13.942-8.417-22.273 0.55-8.215 4.599-15.88 11.136-20.971l181.22-140.984 140.955-181.22c5.091-6.566 12.756-10.587 21.058-11.107 0.579 0 1.186-0.029 1.764-0.029 7.636 0 15.012 3.008 20.45 8.475l61.38 61.351c7.203 7.174 10.066 17.587 7.607 27.451l-36.938 147.753 149.344 149.315 266.204-342.278c5.12-6.566 12.756-10.587 21.087-11.107 8.244-0.347 16.372 2.574 22.244 8.417l81.831 81.802c8.099 8.128 10.674 20.277 6.479 30.979l-177.199 452.803 211.621 211.621c45.066 45.153 45.066 118.567-0.029 163.633zM949.371 803.512l-225.013-224.984c-8.099-8.128-10.674-20.277-6.479-30.979l177.199-452.803-45.269-45.269-266.232 342.307c-5.091 6.566-12.727 10.587-21.029 11.107-8.36 0.376-16.401-2.545-22.273-8.417l-184.083-184.054c-7.203-7.174-10.066-17.587-7.607-27.451l36.938-147.753-26.612-26.612-123.050 158.224c-1.475 1.88-3.182 3.587-5.091 5.062l-158.195 123.079 26.583 26.612 147.724-36.909c9.864-2.488 20.277 0.434 27.479 7.607l184.083 184.083c5.872 5.872 8.938 13.942 8.417 22.273-0.521 8.273-4.57 15.938-11.107 21.029l-342.278 266.232 45.269 45.24 452.803-177.199c10.645-4.165 22.88-1.649 30.979 6.508l224.984 224.984c21.723 21.752 60.079 21.694 81.831 0 22.591-22.649 22.591-59.356 0.029-81.918z"/>
<glyph unicode="" d="M937.585 408.504c0 228.075-185.562 413.637-413.637 413.637-228.106 0-413.699-185.562-413.699-413.637 0-134.401 64.726-253.702 164.321-329.33l-69.832-93.047c-10.401-13.847-7.582-33.491 6.266-43.861 5.639-4.229 12.25-6.266 18.766-6.266 9.524 0 18.923 4.323 25.095 12.5l72.182 96.211c58.585-31.83 125.661-49.938 196.903-49.938s138.286 18.108 196.84 49.938l72.182-96.211c6.14-8.208 15.571-12.5 25.095-12.5 6.516 0 13.127 2.036 18.766 6.266 13.847 10.37 16.636 30.013 6.266 43.861l-69.801 93.047c99.564 75.628 164.289 194.898 164.289 329.33zM523.948 57.462c-193.582 0-351.041 157.459-351.041 351.041 0 193.55 157.459 350.979 351.041 350.979 193.55 0 350.979-157.428 350.979-350.979 0-193.582-157.428-351.041-350.979-351.041zM555.215 421.349v205.612c0 17.325-14.035 31.329-31.329 31.329s-31.329-14.004-31.329-31.329v-218.457c0-8.24 3.258-16.166 9.023-21.993l125.316-127.039c6.14-6.203 14.223-9.336 22.306-9.336 7.958 0 15.915 3.008 21.993 9.023 12.344 12.156 12.438 31.987 0.313 44.299l-116.293 117.891zM401.296 860.706c11.968 3.258 20.928 13.315 22.807 25.564 1.911 12.281-3.634 24.625-14.067 31.329-55.828 35.746-123.154 49.782-188.099 38.691-70.208-11.968-131.582-49.938-172.748-108.022-41.198-58.084-57.301-127.54-45.333-197.78 4.543-26.692 13.033-49.97 25.22-73.874 5.357-10.558 16.166-12.344 27.914-12.344 0.564 0 1.097 0 1.66 0 12.375 0 23.183 3.822 27.601 15.383 53.447 140.197 171.244 242.298 315.044 281.052zM63.694 672.952c-4.887 48.936 7.895 97.402 36.592 137.879 31.517 44.456 78.416 73.936 132.146 83.084 11.31 1.911 22.807 2.882 34.18 2.882 13.283 0 26.504-1.316 39.443-3.885-101.475-45.772-186.564-122.998-242.361-219.961zM1039.843 761.299c-31.392 116.043-137.158 197.091-257.18 197.091-23.497 0-46.962-3.133-69.77-9.305-26.128-7.049-50.91-17.952-73.686-32.488-10.401-6.642-15.978-18.829-14.129-31.047 1.848-12.281 10.746-22.275 22.682-25.533 144.709-39.819 262.318-146.87 314.606-286.347 4.355-11.592 15.163-19.549 27.57-20.239 0.595-0.031 1.191-0.063 1.786-0.063 11.717 0 22.526 6.548 27.914 17.074 30.295 59.274 37.469 127.102 20.207 190.856zM985.33 671.636c-55.264 96.65-140.26 173.939-242.142 220.18 13.033 2.6 26.254 3.885 39.475 3.885 91.794 0 172.685-62 196.652-150.786 6.548-24.029 8.521-48.811 6.015-73.278z" horiz-adv-x="1049"/>
<glyph unicode="" d="M1856 320h-531.2l-328.32 546.56c-34.56 58.24-97.28 93.44-164.48 93.44h-640c-106.24 0-192-85.76-192-192s85.76-192 192-192h531.2l328.32-546.56c34.56-58.24 97.28-93.44 164.48-93.44h640c106.24 0 192 85.76 192 192s-85.76 192-192 192zM1856 64h-640c-22.4 0-43.52 11.52-55.040 31.36l-365.44 608.64h-603.52c-35.2 0-64 28.8-64 64s28.8 64 64 64h640c22.4 0 43.52-11.52 55.040-31.36l365.44-608.64h603.52c35.2 0 64-28.8 64-64s-28.8-64-64-64zM1408 576h448c106.24 0 192 85.76 192 192s-85.76 192-192 192h-448c-106.24 0-192-85.76-192-192s85.76-192 192-192zM1408 832h448c35.2 0 64-28.8 64-64s-28.8-64-64-64h-448c-35.2 0-64 28.8-64 64s28.8 64 64 64z" horiz-adv-x="2048"/>
<glyph unicode="" d="M775.326 377.699c0 153.996-125.282 279.305-279.278 279.305-27.973 0-55.787-4.261-82.754-12.676-13.894-4.393-37.368-4.367-51.288 0-26.914 8.416-54.728 12.676-82.701 12.676-153.996 0-279.305-125.282-279.305-279.305 0-0.529 0.265-0.953 0.291-1.456-0.026-0.529-0.291-0.953-0.291-1.482 0-180.91 97.336-388.206 283.38-434.36 12.756-3.149 25.909-4.393 38.241-4.393 21.516 0 40.649 3.758 51.261 7.569 9.633 3.414 20.007 3.387 29.428 0.026 16.858-6.060 54.596-11.882 89.635-3.202 186.018 46.154 283.354 253.449 283.354 434.36 0 0.529-0.265 0.953-0.318 1.482 0.106 0.503 0.344 0.926 0.344 1.456zM479.217-8.204c-22.442-5.558-49.912-1.614-59.068 1.667-21.013 7.436-43.719 7.463-64.97-0.026-9.077-3.229-36.547-7.198-58.989-1.667-157.966 39.167-243.181 226.588-243.181 382.992 0 0.529-0.265 0.953-0.291 1.482 0.026 0.503 0.291 0.926 0.291 1.456 0 124.832 101.544 226.376 226.376 226.376 22.601 0 45.122-3.467 66.823-10.268 24.056-7.516 58.963-7.595 82.966 0 21.78 6.801 44.301 10.268 66.902 10.268 124.779 0 226.35-101.544 226.35-226.376 0-0.529 0.265-0.953 0.318-1.456-0.053-0.529-0.318-0.953-0.318-1.482-0.026-156.404-85.242-343.799-243.208-382.966zM386.697 669.019c0.344-0.026 0.662-0.026 1.006-0.026 0.185 0 0.344 0 0.529 0 0.026 0 0.053 0.026 0.079 0.026 0.132 0 0.265 0 0.397 0 5.478 0.212 134.809 5.822 196.154 67.246 61.397 61.397 67.034 190.702 67.246 196.18 0.318 7.357-2.541 14.502-7.701 19.716-5.213 5.213-12.094 8.495-19.742 7.728-5.478-0.212-134.809-5.849-196.207-67.246-21.277-21.277-35.727-50.732-45.704-80.346-4.711 7.675-9.871 14.979-16.117 21.224-42.713 42.766-127.505 47.186-137.032 47.556-7.463 0.556-14.502-2.514-19.716-7.728-5.213-5.187-8.019-12.359-7.728-19.716 0.371-9.527 4.764-94.372 47.477-137.059 42.713-42.793 127.532-47.212 137.059-47.556zM465.879 855.222c29.746 29.719 89.873 43.56 130.575 48.986-5.425-40.649-19.293-100.803-49.012-130.522-29.719-29.746-89.873-43.587-130.549-49.012 5.372 40.623 19.16 100.697 48.986 130.549zM329.217 796.075c15.693-15.667 24.268-45.916 28.502-70.58-24.559 4.287-55.072 12.888-70.66 28.529-15.693 15.667-24.241 45.916-28.476 70.58 24.532-4.287 55.019-12.915 70.633-28.529z" horiz-adv-x="775"/>
<glyph unicode="" d="M972.016 251.769l-166.865 171.086c-4.929 5.060-11.694 7.918-18.774 7.918h-59.074v39.488c0 6.581-2.465 15.365-6.922 20.19l-51.103 58.078c-4.929 5.349-11.878 13.372-19.141 13.372-0.052 0-0.105 0-0.157 0-7.211 0-14.159-7.892-19.114-13.163l-51.208-59.415-271.877 269.91v63.295c0 8.207-3.828 15.889-10.357 20.871l-146.203 111.226c-10.619 8.076-25.565 6.948-34.768-2.701l-109.364-115.238c-8.626-9.203-9.465-23.231-2.045-33.404l111.226-152.051c4.929-6.739 12.795-10.724 21.16-10.724h63.4l269.753-266.501-54.564-51.916c-5.113-4.877-8.050-11.589-8.154-18.643-0.079-7.079 2.674-13.844 7.656-18.852l55.613-55.875c4.929-4.929 11.589-7.735 18.564-7.735h54.040v-47.432c0-6.896 2.727-13.53 7.578-18.433l163.928-165.895c34.322-34.348 79.473-53.227 127.22-53.227 48.376 0 94.288 19.272 129.318 54.276 72.158 72.184 72.158 189.572 0.236 261.493zM934.705 27.377c-25.119-25.093-57.868-38.911-92.216-38.911-33.693 0-65.734 13.451-90.040 37.757l-156.246 158.134v62.85c0 14.5-11.72 26.22-26.22 26.22h-69.352l-28.999 29.157 54.721 52.073c5.113 4.903 8.102 11.642 8.154 18.747s-2.727 13.923-7.787 18.905l-296.655 293.089c-4.903 4.877-11.511 7.578-18.433 7.578h-60.883l-90.538 123.759 77.848 82.043 117.283-89.227v-61.198c0-7.001 2.779-13.661 7.735-18.616l298.752-296.628c5.008-4.982 11.956-7.866 18.957-7.604 7.079 0.131 13.792 3.094 18.643 8.259l50.343 53.594 25.093-27.321v-55.482c0-14.5 11.72-26.22 26.22-26.22h74.229l159.392-163.404c50.815-50.841 50.815-136.712 0-187.553zM386.94 229.561l-192.561-208.135c-30.651-30.625-80.496-30.625-111.095 0-30.625 30.651-30.599 80.548-0.656 110.544l282.312 261.389c10.619 9.833 11.275 26.43 1.442 37.049-9.859 10.645-26.456 11.275-37.049 1.416l-283.073-262.070c-51.103-51.129-51.129-134.3-0.052-185.376 24.752-24.752 57.658-38.413 92.636-38.413s67.858 13.661 93.344 39.12l193.269 208.843c9.833 10.645 9.203 27.217-1.442 37.075-10.645 9.833-27.243 9.229-37.075-1.442zM540.039 608.363c3.54-14.054 17.777-22.602 31.805-19.062 14.028 3.513 22.576 17.777 19.062 31.805l-33.431 133.408 148.668 148.222h73.993l-66.258-65.97c-5.873-5.873-8.626-14.133-7.447-22.34l18.538-128.951c1.652-11.484 10.672-20.53 22.208-22.208l128.584-18.721c8.207-1.18 16.545 1.599 22.392 7.473l65.183 65.813v-73.783l-158.055-159.156c-10.2-10.305-10.147-26.876 0.131-37.101 5.113-5.060 11.799-7.604 18.485-7.604 6.739 0 13.477 2.596 18.616 7.735l165.659 166.839c4.877 4.929 7.604 11.563 7.604 18.485v148.301c0 10.619-6.424 20.216-16.23 24.254-9.833 4.038-21.133 1.757-28.606-5.795l-100.738-101.655-96.097 13.975-13.87 96.543 101.918 101.472c7.499 7.499 9.78 18.8 5.716 28.606-4.038 9.806-13.608 16.204-24.227 16.204h-148.354c-6.948 0-13.608-2.727-18.511-7.656l-166.891-166.393c-6.555-6.503-9.177-15.968-6.922-24.935l37.075-147.803z" horiz-adv-x="1026"/>
<glyph unicode="" d="M1005.936 808.519c-9.923 4.097-21.443 1.729-29.025-5.906l-102.238-103.382-97.449 14.047-14.073 98.274 103.408 102.956c7.635 7.609 9.923 19.075 5.826 29.025s-13.834 16.468-24.582 16.468h-150.497c-7.050 0-13.807-2.767-18.782-7.768l-169.305-168.827c-6.624-6.598-9.311-16.202-7.023-25.3l33.813-134.934-496.397-459.524c-0.027-0.053-0.053-0.106-0.106-0.133-0.186-0.186-0.452-0.266-0.638-0.452-51.824-51.85-51.824-136.237 0-188.088 25.114-25.114 58.528-38.974 94.070-38.974s68.93 13.86 94.070 38.974c0.346 0.346 0.452 0.798 0.772 1.171l458.912 495.918 134.535-33.787c9.152-2.315 18.756 0.372 25.353 7.050l168.082 169.279c5.001 5.001 7.768 11.759 7.768 18.782v150.523c0 10.774-6.491 20.485-16.494 24.608zM969.223 644.348l-149.699-150.763-135.146 33.92c-9.497 2.421-19.421-0.559-26.045-7.742l-469.98-507.916c-0.027-0.027-0.027-0.080-0.080-0.133-30.275-29.158-81.992-28.892-111.762 0.878-30.94 30.94-31.046 81.141-0.452 112.32l507.624 469.926c7.13 6.598 10.083 16.547 7.742 25.992l-33.973 135.572 150.816 150.39h75.075l-67.227-66.935c-5.933-5.933-8.726-14.313-7.529-22.64l18.809-131.209c0.053-0.532 0.399-0.905 0.505-1.437 0.399-1.862 1.117-3.512 1.836-5.214 0.665-1.516 1.197-2.98 2.102-4.336 0.958-1.41 2.155-2.501 3.352-3.725 1.224-1.224 2.341-2.448 3.804-3.405 1.304-0.905 2.793-1.463 4.31-2.102 1.703-0.745 3.325-1.49 5.188-1.836 0.532-0.106 0.905-0.452 1.437-0.532l130.438-18.809c8.327-1.277 16.787 1.649 22.719 7.635l66.137 66.908v-74.809z" horiz-adv-x="1022"/>
<glyph unicode="" d="M2195.001 960h-1649.778c-46.592 0-104.391-23.95-137.33-56.889l-374.67-374.67c-21.39-21.447-33.223-50.005-33.223-80.441s11.833-58.994 33.223-80.441l374.67-374.67c32.939-32.939 90.738-56.889 137.33-56.889h1649.778c62.805 0 113.778 51.029 113.778 113.778v796.444c0 62.748-50.972 113.778-113.778 113.778zM2194.887 49.778h-1649.664c-16.213 0-45.454 12.117-56.889 23.552l-374.613 374.67 374.613 374.67c11.492 11.435 40.732 23.552 56.889 23.552h1649.778l-0.114-796.444zM1582.876 230.912c11.093-11.093 25.657-16.668 40.22-16.668s29.127 5.575 40.22 16.668l133.461 133.518 133.575-133.575c11.093-11.093 25.657-16.668 40.22-16.668s29.127 5.575 40.22 16.668c22.244 22.244 22.244 58.197 0 80.441l-133.575 133.575 133.575 133.575c22.244 22.244 22.244 58.197 0 80.441s-58.311 22.244-80.441 0l-133.575-133.575-133.461 133.575c-22.244 22.244-58.197 22.244-80.441 0s-22.244-58.197 0-80.441l133.461-133.575-133.461-133.575c-22.187-22.187-22.187-58.197 0-80.384z" horiz-adv-x="2309"/>
<glyph unicode="" d="M724.008 656.429c0 167.378-136.193 303.571-303.571 303.571s-303.571-136.193-303.571-303.571c0-167.378 136.193-303.571 303.571-303.571s303.571 136.193 303.571 303.571zM420.437 408.053c-136.938 0-248.376 111.411-248.376 248.376s111.438 248.376 248.376 248.376c136.938 0 248.376-111.411 248.376-248.376s-111.411-248.376-248.376-248.376zM547.551 753.323h-57.071l-17.58 54.118c-7.396 22.74-28.563 38.14-52.49 38.14s-45.094-15.399-52.49-38.14l-17.58-54.118h-56.906c-23.899 0-45.094-15.399-52.49-38.14s0.69-47.661 20.036-61.708l46.032-33.448-17.58-54.118c-7.396-22.74 0.718-47.688 20.063-61.708 9.659-7.037 21.057-10.542 32.427-10.542s22.768 3.505 32.454 10.542l46.032 33.448 46.005-33.448c9.714-7.037 21.084-10.542 32.454-10.542 11.398 0 22.795 3.505 32.454 10.542 19.346 14.047 27.432 38.967 20.063 61.708l-17.58 54.118 44.901 32.648c14.433 9.935 23.927 26.604 23.927 45.453 0.028 30.467-24.589 55.195-55.084 55.195zM468.954 641.113l29.971-92.258-78.459 57.016-78.487-57.016 29.971 92.258-78.459 57.016h97.005l29.971 92.258 29.943-92.258h97.032l-78.487-57.016zM831.611 69.709l-141.078 315.189c-3.67 8.196-11.067 14.075-19.87 15.813s-17.855-0.883-24.368-7.093c-25.472-24.258-54.118-43.604-85.11-57.485-31.13-13.881-64.661-22.381-99.626-25.196-8.886-0.718-16.917-5.74-21.498-13.44s-5.106-17.166-1.435-25.334l143.175-319.826c4.471-9.963 14.351-16.338 25.196-16.338 0.248 0 0.524 0 0.773 0 11.149 0.331 21.029 7.341 25.003 17.773l45.812 120.076 120.076-45.784c3.201-1.214 6.513-1.794 9.825-1.794 0.193 0.028 0.414 0.028 0.552 0 15.261 0 27.597 12.336 27.597 27.597 0 5.878-1.849 11.343-5.023 15.841zM672.484 135.253c-14.157 5.437-30.192-1.711-35.628-15.951l-31.875-83.592-100.868 225.305c27.597 5.161 54.256 13.412 79.646 24.727 25.307 11.343 49.261 25.721 71.505 42.914l100.841-225.277-83.62 31.875zM376.558 312.704c-34.993 3.091-68.414 11.867-99.35 25.997-30.881 14.13-59.362 33.696-84.669 58.148-6.43 6.209-15.399 8.942-24.313 7.286-8.804-1.656-16.255-7.479-19.98-15.62l-145.742-318.667c-4.636-10.156-2.732-22.105 4.885-30.274 7.617-8.224 19.429-10.956 29.86-7.093l120.435 44.873 44.846-120.462c3.891-10.459 13.716-17.552 24.865-17.938 0.331-0.028 0.662-0.028 0.994-0.028 10.763 0 20.588 6.292 25.086 16.117l145.769 318.694c3.726 8.169 3.284 17.607-1.242 25.362-4.526 7.727-12.529 12.833-21.443 13.605zM230.982 38.635l-31.213 83.868c-2.539 6.872-7.727 12.419-14.378 15.482-3.643 1.683-7.562 2.511-11.481 2.511-3.256 0-6.513-0.58-9.631-1.739l-83.868-31.24 102.662 224.477c22.133-17.386 45.977-31.93 71.174-43.438 25.252-11.563 51.828-20.091 79.398-25.445l-102.662-224.477z" horiz-adv-x="837"/>
<glyph unicode="" d="M1012.408 471.016l-90.825 58.809 61.421 89.075c5.17 7.513 6.193 17.153 2.72 25.581s-11.013 14.514-20.007 16.183l-106.416 19.576 22.7 105.824c1.885 8.94-0.835 18.23-7.297 24.692-6.463 6.436-15.725 9.29-24.665 7.297l-105.824-22.673-19.603 106.416c-1.669 8.994-7.755 16.506-16.183 20.007-8.455 3.474-18.068 2.504-25.608-2.72l-89.048-61.394-58.809 90.798c-9.909 15.348-35.302 15.348-45.211 0l-58.809-90.798-89.075 61.394c-7.513 5.197-17.153 6.166-25.608 2.72-8.428-3.501-14.541-11.013-16.183-20.007l-19.576-106.416-105.824 22.673c-8.913 1.993-18.203-0.835-24.692-7.297-6.463-6.463-9.209-15.752-7.297-24.692l22.673-105.824-106.416-19.576c-8.994-1.669-16.506-7.728-20.007-16.183s-2.477-18.068 2.72-25.581l61.421-89.075-90.825-58.809c-7.62-4.955-12.252-13.491-12.252-22.619s4.631-17.637 12.306-22.619l90.825-58.809-61.421-89.075c-5.17-7.513-6.193-17.153-2.72-25.581s11.013-14.514 20.007-16.183l106.416-19.576-22.673-105.824c-1.912-8.94 0.835-18.23 7.297-24.692s15.752-9.371 24.692-7.297l105.824 22.673 19.576-106.416c1.643-8.994 7.755-16.506 16.183-20.007 8.455-3.474 18.068-2.504 25.608 2.72l89.075 61.394 58.809-90.798c4.955-7.674 13.464-12.306 22.592-12.306s17.637 4.631 22.592 12.306l58.809 90.798 89.048-61.394c7.54-5.197 17.153-6.166 25.608-2.72 8.428 3.501 14.514 11.013 16.183 20.007l19.603 106.416 105.824-22.673c8.94-2.073 18.203 0.808 24.665 7.297s9.209 15.752 7.297 24.692l-22.7 105.824 106.416 19.576c8.994 1.669 16.506 7.728 20.007 16.183s2.477 18.068-2.72 25.581l-61.421 89.075 90.825 58.809c7.674 4.982 12.306 13.491 12.306 22.619s-4.658 17.664-12.333 22.619zM869.021 397.155c-6.112-3.958-10.367-10.232-11.794-17.368-1.427-7.163 0.135-14.541 4.254-20.545l53.531-77.658-92.764-17.072c-7.163-1.319-13.491-5.466-17.503-11.525-4.039-6.059-5.466-13.491-3.931-20.626l19.738-92.226-92.226 19.738c-7.163 1.616-14.568 0.135-20.626-3.931-6.059-4.012-10.205-10.367-11.525-17.503l-17.072-92.764-77.658 53.531c-6.005 4.147-13.41 5.762-20.519 4.228-7.163-1.427-13.41-5.655-17.368-11.794l-51.269-79.166-51.269 79.166c-3.958 6.139-10.205 10.367-17.368 11.794-1.723 0.377-3.501 0.539-5.251 0.539-5.412 0-10.744-1.643-15.295-4.766l-77.631-53.531-17.072 92.764c-1.319 7.163-5.466 13.491-11.525 17.503-6.059 4.066-13.491 5.547-20.599 3.931l-92.226-19.738 19.765 92.226c1.535 7.136 0.081 14.568-3.931 20.626s-10.367 10.205-17.53 11.525l-92.764 17.072 53.531 77.658c4.12 6.005 5.655 13.383 4.254 20.545-1.427 7.136-5.655 13.383-11.794 17.368l-79.166 51.242 79.166 51.242c6.112 3.958 10.367 10.232 11.794 17.368 1.427 7.163-0.108 14.541-4.254 20.545l-53.531 77.658 92.764 17.072c7.163 1.319 13.491 5.466 17.53 11.525s5.466 13.491 3.931 20.626l-19.765 92.226 92.226-19.738c7.109-1.589 14.541-0.108 20.599 3.931 6.059 4.012 10.205 10.367 11.525 17.503l17.072 92.764 77.631-53.531c5.978-4.12 13.383-5.735 20.545-4.228 7.136 1.427 13.41 5.655 17.368 11.794l51.269 79.166 51.269-79.166c3.931-6.139 10.205-10.367 17.368-11.794 7.109-1.508 14.514 0.108 20.519 4.228l77.658 53.531 17.072-92.764c1.319-7.163 5.466-13.491 11.525-17.503 6.059-4.039 13.464-5.52 20.626-3.931l92.226 19.738-19.738-92.226c-1.535-7.136-0.108-14.568 3.931-20.626 4.012-6.059 10.367-10.205 17.503-11.525l92.764-17.072-53.531-77.658c-4.12-6.005-5.682-13.383-4.254-20.545 1.427-7.136 5.682-13.383 11.794-17.368l79.193-51.242-79.193-51.242z" horiz-adv-x="1025"/>
<glyph unicode="" d="M84.845 331.362h85.838c12.689 0 23.886 8.157 27.804 20.173l60.344 185.709c0.936 2.953 1.433 5.993 1.433 9.063v384.457c0 16.168-13.069 29.236-29.236 29.236h-146.181c-16.168 0-29.236-13.069-29.236-29.236v-570.166c0-16.168 13.069-29.236 29.236-29.236zM114.081 901.527h87.709v-350.601l-52.362-161.092h-35.347v511.693zM380.511 351.535c3.918-12.016 15.144-20.173 27.804-20.173h85.838c16.168 0 29.236 13.069 29.236 29.236v570.166c0 16.168-13.069 29.236-29.236 29.236h-146.181c-16.168 0-29.236-13.069-29.236-29.236v-384.457c0-3.041 0.497-6.11 1.433-9.063l60.344-185.709zM377.207 901.527h87.709v-511.693h-35.347l-52.362 161.092v350.601zM580.429 281.923c-3.918 12.045-15.144 20.202-27.804 20.202h-178.663l-55.227 169.921c-3.918 12.016-15.144 20.173-27.804 20.173s-23.886-8.157-27.804-20.173l-55.227-169.921h-178.663c-12.689 0-23.886-8.157-27.804-20.202-3.918-12.016 0.38-25.231 10.613-32.657l144.544-105.046-55.227-169.95c-3.918-12.016 0.38-25.231 10.613-32.657 10.291-7.484 24.091-7.484 34.382 0l144.544 105.017 144.544-105.017c5.146-3.742 11.168-5.584 17.191-5.584s12.045 1.842 17.191 5.584c10.262 7.426 14.53 20.641 10.613 32.657l-55.227 169.95 144.544 105.046c10.291 7.397 14.589 20.641 10.671 32.657zM373.699 179.012c-10.262-7.426-14.53-20.641-10.613-32.657l33.973-104.549-88.937 64.612c-5.146 3.742-11.168 5.584-17.191 5.584s-12.045-1.842-17.191-5.584l-88.937-64.612 33.973 104.549c3.918 12.016-0.38 25.231-10.613 32.657l-88.966 64.641h109.958c12.689 0 23.886 8.157 27.804 20.173l33.973 104.549 33.973-104.549c3.918-12.016 15.144-20.173 27.804-20.173h109.958l-88.966-64.641z" horiz-adv-x="582"/>
<glyph unicode="" d="M512.032 804.32c-196.462 0-356.32-159.858-356.32-356.32s159.858-356.32 356.32-356.32c196.494 0 356.32 159.858 356.32 356.32s-159.793 356.32-356.32 356.32zM512.032 156.465c-160.733 0-291.535 130.77-291.535 291.535s130.802 291.535 291.535 291.535c160.765 0 291.535-130.77 291.535-291.535s-130.77-291.535-291.535-291.535zM458.584 564.808c-16.974-13.896-40.815-25.752-71.523-35.664v-73.953c20.829 6.349 38.126 12.989 51.926 19.922s28.085 16.002 42.856 27.242v-216.351h91.25v330.179h-74.665c-9.588-20.375-22.869-37.478-39.843-51.375zM1024 448c0 27.372-12.666 53.189-34.79 70.843l-24.165 19.274 14.933 27.048c13.735 24.845 15.549 53.545 5.053 78.876-10.495 25.266-32.134 44.249-59.344 52.055l-29.607 8.552 3.401 30.611c2.98 26.206-5.053 52.12-22.027 71.167-16.844 18.853-41.366 29.672-67.377 29.672-3.466 0-7.029-0.194-10.625-0.583l-30.806-3.466-8.552 29.672c-11.402 39.487-45.933 66.016-85.97 66.016-15.451 0-31-4.081-44.929-11.759l-27.080-14.965-19.241 24.133c-17.654 22.157-43.471 34.855-70.875 34.855-27.372 0-53.189-12.73-70.875-34.887l-19.241-24.1-27.048 14.933c-13.961 7.709-29.51 11.791-44.961 11.791-40.037 0-74.601-26.53-85.97-66.049l-8.519-29.639-30.708 3.434c-3.693 0.421-7.288 0.615-10.819 0.615-25.947 0-50.468-10.819-67.312-29.672-16.974-19.015-25.007-44.961-22.027-71.135l3.466-30.644-29.704-8.584c-27.145-7.774-48.783-26.756-59.279-52.023-10.495-25.299-8.681-54.031 5.053-78.876l14.933-27.048-24.165-19.274c-22.157-17.654-34.822-43.471-34.822-70.843s12.698-53.189 34.822-70.843l24.165-19.274-14.933-27.048c-13.702-24.845-15.549-53.545-5.053-78.876 10.495-25.266 32.134-44.249 59.376-52.055l29.607-8.552-3.466-30.611c-2.98-26.206 5.053-52.12 22.059-71.167 16.844-18.853 41.398-29.672 67.345-29.672 3.466 0 7.029 0.194 10.657 0.583l30.838 3.466 8.552-29.672c11.337-39.487 45.901-66.016 85.938-66.016 15.451 0 31 4.081 44.929 11.759l27.048 14.965 19.274-24.133c17.589-22.157 43.439-34.855 70.843-34.855s53.286 12.73 70.908 34.919l19.177 24.068 27.080-14.933c13.929-7.709 29.477-11.791 44.929-11.791 40.037 0 74.601 26.53 85.97 66.049l8.552 29.639 30.676-3.434c3.725-0.421 7.288-0.615 10.754-0.615 26.011 0 50.565 10.819 67.377 29.672 16.941 19.047 24.975 44.994 22.027 71.199l-3.401 30.579 29.672 8.584c27.145 7.774 48.783 26.756 59.279 52.023 10.495 25.299 8.681 54.031-5.053 78.876l-14.933 27.048 24.165 19.274c22.157 17.654 34.822 43.471 34.822 70.843zM948.784 427.819l-41.625-33.17c-13.929-11.111-18.237-32.943-9.621-48.524l25.752-46.581c8.616-15.581 1.652-32.393-15.451-37.284l-51.181-14.739c-17.071-4.891-29.477-23.452-27.469-41.171l5.96-52.833c1.846-16.52-9.167-28.797-25.040-28.797-1.134 0-2.267 0.065-3.466 0.194l-52.897 5.96c-1.263 0.162-2.591 0.227-3.855 0.227-16.456 0-32.717-11.823-37.316-27.696l-14.674-51.116c-3.466-12.115-12.957-19.177-23.712-19.177-4.438 0-9.038 1.199-13.605 3.693l-46.581 25.752c-5.442 3.013-11.564 4.438-17.848 4.438-11.629 0-23.485-4.988-30.676-14.123l-33.203-41.56c-5.539-6.964-12.828-10.463-20.181-10.463s-14.642 3.498-20.181 10.463l-33.17 41.56c-7.256 9.102-19.047 14.123-30.708 14.123-6.219 0-12.406-1.425-17.848-4.438l-46.581-25.752c-4.535-2.494-9.167-3.693-13.605-3.693-10.754 0-20.213 7.062-23.679 19.177l-14.739 51.116c-4.567 15.872-20.861 27.696-37.316 27.696-1.296 0-2.559-0.065-3.822-0.227l-52.897-5.96c-1.199-0.13-2.365-0.194-3.531-0.194-15.84 0-26.886 12.277-25.007 28.797l5.96 52.833c2.008 17.719-10.366 36.248-27.501 41.171l-51.148 14.739c-17.103 4.891-24.068 21.703-15.451 37.284l25.752 46.581c8.616 15.581 4.276 37.414-9.653 48.524l-41.625 33.17c-13.929 11.111-13.929 29.251 0 40.361l41.625 33.17c13.929 11.111 18.27 32.943 9.653 48.524l-25.817 46.613c-8.616 15.581-1.652 32.393 15.451 37.284l51.148 14.739c17.103 4.891 29.51 23.452 27.501 41.171l-5.96 52.897c-1.879 16.456 9.167 28.732 24.975 28.732 1.166 0 2.365-0.065 3.563-0.194l52.897-5.96c1.263-0.13 2.527-0.227 3.79-0.227 16.488 0 32.781 11.791 37.349 27.696l14.739 51.116c3.466 12.115 12.925 19.177 23.679 19.177 4.438 0 9.070-1.199 13.605-3.693l46.581-25.752c5.41-3.013 11.629-4.438 17.848-4.438 11.661 0 23.452 4.988 30.676 14.091l33.17 41.592c5.539 6.964 12.828 10.463 20.181 10.463s14.642-3.498 20.181-10.463l33.203-41.592c7.224-9.070 18.982-14.091 30.676-14.091 6.187 0 12.406 1.425 17.848 4.438l46.581 25.752c4.567 2.494 9.167 3.693 13.605 3.693 10.754 0 20.245-7.062 23.712-19.177l14.674-51.116c4.632-15.872 20.893-27.696 37.316-27.696 1.263 0 2.527 0.065 3.855 0.227l52.897 5.96c1.199 0.13 2.332 0.194 3.466 0.194 15.872 0 26.886-12.277 25.040-28.797l-5.96-52.833c-2.041-17.719 10.366-36.248 27.469-41.171l51.181-14.739c17.071-4.891 24.035-21.703 15.451-37.284l-25.752-46.581c-8.616-15.581-4.308-37.414 9.621-48.524l41.625-33.17c13.994-11.143 13.994-29.315 0.097-40.394z"/>
<glyph unicode="" d="M428.738 198.007h142.913v404.92h-142.913v-404.92zM476.376 555.289h47.638v-309.644h-47.638v309.644zM786.020 602.926h-142.913v-404.92h142.913v404.92zM738.383 245.644h-47.638v309.644h47.638v-309.644zM357.282 602.926h-142.913v-404.92h142.913v404.92zM309.644 245.644h-47.638v309.644h47.638v-309.644zM500.195 674.383c52.52 0 95.275 42.731 95.275 95.275s-42.755 95.275-95.275 95.275c-52.544 0-95.275-42.731-95.275-95.275s42.731-95.275 95.275-95.275zM500.195 817.296c26.296 0 47.638-21.365 47.638-47.638s-21.342-47.638-47.638-47.638c-26.272 0-47.638 21.365-47.638 47.638s21.365 47.638 47.638 47.638zM95.275 555.289v-313.717c-27.725-9.837-47.638-36.324-47.638-67.383 0-39.396 32.060-71.456 71.456-71.456h762.202c39.396 0 71.456 32.060 71.456 71.456 0 31.060-19.913 57.546-47.638 67.383v313.717c32.012 0 59.571 20.556 68.574 51.139 8.884 30.226-3.311 63.239-29.678 80.317l-405.063 262.102c-23.366 14.839-53.973 14.934-77.649-0.095l-404.92-262.031c-26.344-17.054-38.563-50.091-29.678-80.293 9.004-30.583 36.562-51.139 68.574-51.139zM82.27 646.753l404.753 261.912c8.051 5.121 18.46 5.026 26.201 0.095l404.92-261.983c8.789-5.693 12.862-16.745 9.885-26.891-3.025-10.147-12.219-16.959-22.914-16.959h-47.638v-404.92h23.819c13.148 0 23.819-10.671 23.819-23.819s-10.671-23.819-23.819-23.819h-762.202c-13.124 0-23.819 10.671-23.819 23.819s10.695 23.819 23.819 23.819h23.819v404.92h-47.638c-10.695 0-19.889 6.812-22.866 16.959s1.072 21.199 9.861 26.868zM928.933 78.913h-857.477c-39.396 0-71.456-32.060-71.456-71.456s32.060-71.456 71.456-71.456h857.477c39.396 0 71.456 32.060 71.456 71.456s-32.060 71.456-71.456 71.456zM928.933-16.362h-857.477c-13.124 0-23.819 10.671-23.819 23.819s10.695 23.819 23.819 23.819h857.477c13.148 0 23.819-10.671 23.819-23.819s-10.671-23.819-23.819-23.819z" horiz-adv-x="1000"/>
<glyph unicode="" d="M2496 960h-2176c-35.328 0-64-28.608-64-64v-128h-192c-35.328 0-64-28.608-64-64v-512c0-35.392 28.672-64 64-64h192v-128c0-35.392 28.672-64 64-64h2176c35.392 0 64 28.608 64 64v896c0 35.392-28.608 64-64 64zM128 256v384h128v-384h-128zM2432 64h-2048v768h2048v-768zM512 128h1792c7.872 0 15.232 1.856 22.4 4.48 2.112 0.832 4.032 1.856 6.016 2.88 4.864 2.432 9.344 5.44 13.376 9.024 1.664 1.472 3.392 2.752 4.864 4.352 4.608 4.992 8.576 10.624 11.456 17.024 0.32 0.576 0.704 1.024 0.96 1.536 0.064 0.064 0.128 0.128 0.128 0.192 3.008 7.168 4.096 14.656 4.352 22.144 0 0.896 0.448 1.536 0.448 2.368v512c0 35.392-28.608 64-64 64h-1792c-29.568 0-53.376-20.416-60.736-47.744-0.64-1.984-0.832-4.16-1.28-6.272-0.512-3.392-1.984-6.4-1.984-9.984 0-0.512 0.256-0.96 0.32-1.472 0-0.704-0.32-1.344-0.32-1.984v-508.544c0-35.392 28.672-64 64-64zM576 256v290.752l292.736-290.752h-292.736zM1050.432 256l-386.688 384h461.76l384-384h-459.072zM1690.496 256l-384 384h459.008l384-384h-459.008zM2240 346.496l-293.504 293.504h293.504v-293.504z" horiz-adv-x="2560"/>
<glyph unicode="" d="M2496 960h-2176c-35.328 0-64-28.608-64-64v-128h-192c-35.328 0-64-28.608-64-64v-512c0-35.392 28.672-64 64-64h192v-128c0-35.392 28.672-64 64-64h2176c35.392 0 64 28.608 64 64v896c0 35.392-28.608 64-64 64zM128 256v384h128v-384h-128zM2432 64h-2048v768h2048v-768zM512 128h512c25.92 0 49.28 15.616 59.136 39.616 9.92 23.936 4.352 51.52-14.080 69.824l-512 508.48c-18.368 18.176-45.888 23.616-69.696 13.632-23.808-9.92-39.36-33.152-39.36-59.072v-508.48c0-35.392 28.672-64 64-64zM576 546.752l292.736-290.752h-292.736v290.752z" horiz-adv-x="2560"/>
<glyph unicode="" d="M315.077 802.462c0 86.882-70.656 157.538-157.538 157.538s-157.538-70.656-157.538-157.538v-866.462h315.077v236.308h945.231v-236.308h315.077v551.385h-1260.308v315.077zM1496.615 408.615v-393.846h-157.538v236.308h-1102.769v-236.308h-157.538v787.692c0 43.441 35.328 78.769 78.769 78.769s78.769-35.328 78.769-78.769v-393.846h1260.308zM1555.771 809.354c-125.164 72.783-268.209 111.262-413.617 111.262s-288.453-38.479-413.617-111.262l-0.473-0.276c-31.98 65.733-98.816 111.537-176.679 111.537-108.583 0-196.923-88.34-196.923-196.923s88.34-196.923 196.923-196.923c67.466 0 127.055 34.146 162.54 86.055 14.1-49.506 59.195-86.055 113.152-86.055h630.154c65.142 0 118.154 53.012 118.154 118.154v153.049l-19.614 11.382zM551.385 605.538c-65.142 0-118.154 53.012-118.154 118.154s53.012 118.154 118.154 118.154c65.142 0 118.154-53.012 118.154-118.154s-53.012-118.154-118.154-118.154zM1496.615 644.923c0-21.74-17.684-39.385-39.385-39.385h-630.154c-21.701 0-39.385 17.644-39.385 39.385v107.362c216.812 117.327 492.111 117.327 708.923 0v-107.362z" horiz-adv-x="1575"/>
<glyph unicode="" d="M821.25 162.574c-44.309 31.039-70.649 81.404-70.649 135.607v330.91c0 182.464-148.446 330.91-330.91 330.91s-330.91-148.446-330.91-330.91v-330.91c0-55.56-27.664-107.082-73.991-137.89-12.144-8.074-17.604-23.164-13.369-37.128 4.203-13.964 17.075-23.528 31.668-23.528h773.237c0.232 0.033 0.463 0.033 0.662 0 18.299 0 33.091 14.792 33.091 33.091 0 13.137-7.677 24.52-18.829 29.848zM113.5 165.817c26.704 38.253 41.496 84.25 41.496 132.364v330.91c0 145.964 118.763 264.728 264.728 264.728s264.728-118.763 264.728-264.728v-330.91c0-48.114 14.825-94.111 41.496-132.364h-612.448zM513.239 68.364h-187.030c-11.052 0-21.377-5.493-27.499-14.659s-7.313-20.814-3.111-31.039c17.24-41.761 63.369-86.665 124.124-86.665s106.884 44.904 124.124 86.665c4.203 10.225 3.044 21.84-3.111 31.039s-16.446 14.659-27.499 14.659z" horiz-adv-x="840"/>
<glyph unicode="" d="M1186.938 815.651l-96.638 16.648 52.548 82.81c6.31 9.989 5.37 22.958-2.336 31.899-7.733 8.995-20.407 11.761-31.228 7.035l-118.683-52.602c-39.847 28.973-88.717 46.292-141.641 46.292-133.263 0-241.662-108.399-241.662-241.662 0-10.526 0.698-21.051 2.121-31.497-34.88 9.532-71.532 13.64-107.755 12.862-21.75 66.86-62.268 129.477-115.864 176.628-54.562 48.467-122.469 81.843-194.484 95.457-9.586 1.718-20.004-1.181-27.281-8.727l-0.161-0.161c-70.297-73.143-111.836-172.977-113.313-274.475-1.181-50.534 8.673-101.713 26.287-148.058 12.191-32.141 28.489-62 48.064-89.469-45.459 2.954-81.548 28.731-81.95 29.053-8.136 6.095-19.038 7.008-28.113 2.524-9.103-4.565-14.849-13.855-14.849-24.032 0-281.322 228.854-510.176 510.176-510.176 207.293 0 375.919 168.627 375.919 375.919 0 52.629-11.17 104.559-32.624 152.543 131.169 2.39 237.151 109.876 237.151 241.609 0 4.323-0.43 8.539-0.644 12.835l103.297 45.755c10.794 4.806 17.239 16.111 15.762 27.845s-10.445 21.132-22.099 23.146zM848.96 518.111c-12.244 0-24.703 1.262-37.055 3.705-10.633 2.202-21.239-2.229-27.335-11.036-6.095-8.78-6.364-20.353-0.725-29.456 31.765-51.179 48.547-109.768 48.547-169.405 0-177.676-144.541-322.216-322.216-322.216-236.158 0-431.018 180.28-454.164 410.423 32.275-13.103 78.54-23.629 127.974-8.002 14.124 4.457 21.991 19.548 17.507 33.672-1.128 3.652-3.007 6.82-5.37 9.505-0.027 0.054-0.054 0.107-0.081 0.161l-0.107 0.107c-28.060 33.081-50.266 71.72-64.631 111.755-14.983 41.566-21.347 84.421-20.514 127.625 1.343 80.849 33.081 160.33 86.247 221.094 55.314-12.298 107.755-38.263 150.985-75.345 47.742-40.841 83.749-94.060 103.969-154.771 19.977-58.778 24.864-124.349 13.291-187.074-5.558-31.524-15.413-62.51-29.322-91.859-13.13-29.886-30.852-57.516-51.394-84.045-2.363-3.034-2.363-7.438 0.242-10.499 2.981-3.518 8.243-3.947 11.761-0.994l0.188 0.161c26.395 22.394 48.923 50.051 68.015 79.802 18.339 30.261 32.705 63.208 42.479 97.739 14.849 53.139 17.239 109.446 7.733 164.465 41.485-0.644 83.078-8.861 121.69-25.348 9.774-4.135 21.186-2.148 28.973 5.182s10.445 18.581 6.793 28.65c-7.545 20.89-11.412 42.398-11.412 63.906 0 103.619 84.34 187.96 187.96 187.96 92.127 0 168.841-66.699 184.791-154.315-0.994-5.182-0.967-10.606 1.343-15.789 0.269-0.591 0.698-1.020 1.020-1.611 0.456-5.37 0.806-10.767 0.806-16.245-0.027-103.566-84.367-187.906-187.986-187.906zM983.217 759.773c0-29.659-24.044-53.703-53.703-53.703s-53.703 24.044-53.703 53.703c0 29.659 24.044 53.703 53.703 53.703s53.703-24.044 53.703-53.703z" horiz-adv-x="1209"/>
<glyph unicode="" d="M1191.246 818.824l-97.014 16.708 52.738 83.108c6.36 10.025 5.417 23.041-2.344 32.014-7.707 9.028-20.454 11.803-31.341 7.060l-119.111-52.792c-39.991 29.077-89.037 46.459-142.152 46.459-133.717 0-242.534-108.79-242.534-242.534 0-10.591 0.701-21.127 2.129-31.61-32.311 8.839-65.646 13.312-99.601 13.312-167.025 0-311.979-108.359-360.325-266.329-69.149 9.54-104.613 41.851-106.095 43.225-7.788 7.492-19.268 9.54-29.212 5.363-9.944-4.231-16.385-14.013-16.385-24.792 0-282.336 229.68-512.016 512.016-512.016 208.040 0 377.275 169.235 377.275 377.275 0 52.819-11.21 104.936-32.742 153.093 131.669 2.398 238.007 110.272 238.007 242.48 0 4.446-0.431 8.812-0.647 13.178l103.616 45.569c10.887 4.797 17.355 16.142 15.899 27.918-1.482 11.83-10.51 21.289-22.178 23.31zM852.022 520.21c-12.261 0-24.792 1.267-37.162 3.719-10.51 2.264-21.316-2.21-27.433-11.076-6.117-8.812-6.414-20.427-0.728-29.562 31.853-51.363 48.695-110.164 48.695-170.016 0-178.316-145.062-323.379-323.379-323.379-235.366 0-429.851 178.451-455.317 407.134 26.921-13.070 64.837-25.87 113.425-28.7 13.097-0.323 24.738 7.923 27.784 20.615 35.033 145.844 164.195 247.708 314.108 247.708 43.926 0 86.639-8.704 126.926-25.924 9.836-4.15 21.289-2.156 29.104 5.201 7.788 7.357 10.456 18.675 6.791 28.754-7.599 20.966-11.48 42.551-11.48 64.137 0 103.993 84.644 188.638 188.638 188.638 104.020 0 188.638-84.644 188.638-188.638s-84.59-188.611-188.611-188.611zM986.763 762.744c0-29.766-24.13-53.896-53.896-53.896s-53.896 24.13-53.896 53.896c0 29.766 24.13 53.896 53.896 53.896s53.896-24.13 53.896-53.896zM734.959 343.322c-14.094 4.689-29.374-2.937-34.063-17.085-13.205-39.803-37.108-73.218-69.257-98.307-31.907-24.927-71.305-40.153-111.646-43.090-20.157-1.509-40.503 0.054-60.256 4.393-4.905 1.294-9.836 2.318-14.66 3.934-2.21 0.728-5.309 1.563-6.818 2.156l-8.058 2.91c-8.92 3.611-18.001 7.626-26.84 12.773-28.565 16.142-52.845 39.641-71.035 67.074l94.534 66.697c1.455 1.024 2.156 2.91 1.617 4.716-0.674 2.237-3.045 3.503-5.282 2.803l-139.807-43.198c-11.803-4.366-17.786-17.409-13.447-29.212l2.56-6.899v-0.054c23.31-45.3 59.798-83.647 104.263-108.844 10.968-6.306 22.798-11.722 35.114-16.546l8.084-2.91c3.854-1.428 6.279-1.994 9.54-3.045 6.063-1.967 12.288-3.342 18.46-4.932 24.927-5.524 50.636-7.438 76.102-5.578 50.959 3.719 100.517 22.933 140.724 54.301 40.261 30.937 71.278 75.482 86.854 122.56l0.485 1.374c4.581 14.094-3.072 29.293-17.166 34.009z" horiz-adv-x="1214"/>
<glyph unicode="" d="M933.647-64h-843.294c-49.815 0-90.353 40.538-90.353 90.353v843.294c0 49.815 40.538 90.353 90.353 90.353h843.294c49.815 0 90.353-40.538 90.353-90.353v-843.294c0-49.815-40.538-90.353-90.353-90.353zM90.353 899.765c-16.595 0-30.118-13.493-30.118-30.118v-843.294c0-16.625 13.523-30.118 30.118-30.118h843.294c16.595 0 30.118 13.493 30.118 30.118v843.294c0 16.625-13.523 30.118-30.118 30.118h-843.294zM512 115.049c-3.885 0-7.8 0.723-11.535 2.289-11.234 4.668-18.583 15.661-18.583 27.829v198.355l-129.295-129.295c-11.776-11.776-30.81-11.776-42.586 0s-11.776 30.81 0 42.586l171.881 171.881v35.298l-171.881 171.881c-11.776 11.776-11.776 30.81 0 42.586s30.81 11.776 42.586 0l129.295-129.295v198.355c0 12.168 7.349 23.191 18.583 27.829 11.294 4.698 24.215 2.078 32.828-6.536l165.647-165.647c11.776-11.776 11.776-30.81 0-42.586l-114.236-114.236 114.236-114.236c11.776-11.776 11.776-30.81 0-42.586l-165.647-165.647c-5.752-5.752-13.463-8.824-21.293-8.824zM542.118 403.757v-185.886l92.943 92.943-92.943 92.943zM542.118 488.93l92.943 92.943-92.943 92.943v-185.886z"/>
<glyph unicode="" d="M1934.052 448c69.12 51.94 113.948 134.599 113.948 227.556 0 156.843-127.602 284.444-284.444 284.444-137.387 0-252.302-97.906-278.699-227.556h-921.714c-26.453 129.65-141.312 227.556-278.699 227.556-156.843 0-284.444-127.602-284.444-284.444 0-91.648 44.203-175.161 114.859-227.556-70.656-52.395-114.859-135.908-114.859-227.556 0-156.843 127.602-284.444 284.444-284.444 137.387 0 252.302 97.906 278.699 227.556h921.657c26.453-129.65 141.312-227.556 278.699-227.556 156.843 0 284.444 127.602 284.444 284.444 0.057 92.956-44.772 175.616-113.892 227.556zM1763.556 49.778c-94.094 0-170.667 76.572-170.667 170.667 0 31.46-25.429 56.889-56.889 56.889h-1024c-31.46 0-56.889-25.429-56.889-56.889 0-94.094-76.572-170.667-170.667-170.667s-170.667 76.572-170.667 170.667c0 77.255 52.679 144.896 128.057 164.466 25.088 6.485 42.61 29.070 42.61 55.012v16.1c0 25.941-17.522 48.583-42.61 55.068-75.378 19.57-128.057 87.211-128.057 164.466 0 94.094 76.572 170.667 170.667 170.667s170.667-76.572 170.667-170.667c0-31.46 25.429-56.889 56.889-56.889h1024c31.46 0 56.889 25.429 56.889 56.889 0 94.094 76.572 170.667 170.667 170.667s170.667-76.572 170.667-170.667c0-94.094-76.572-170.667-170.667-170.667-31.46 0-56.889-25.429-56.889-56.889s25.429-56.889 56.889-56.889c94.094 0 170.667-76.572 170.667-170.667s-76.572-170.667-170.667-170.667z" horiz-adv-x="2048"/>
<glyph unicode="" d="M607.951 960h-552.682c-30.48 0-55.268-24.788-55.268-55.268v-635.585c0-5.637 1.105-10.971 2.681-16.111-1.63-3.537-2.681-7.378-2.681-11.523v-84.422c0-44.878 37.196-81.382 82.902-81.382h82.902c15.254 0 27.634 12.352 27.634 27.634s-12.38 27.634-27.634 27.634h-82.902c-15.503 0-27.634 11.468-27.634 26.114v56.788h552.682c30.508 0 55.268 24.788 55.268 55.268v635.585c0 30.48-24.76 55.268-55.268 55.268zM55.268 904.732h55.268v-635.585h-55.268v635.585zM165.805 269.147v635.585h442.146l0.055-635.585h-442.201zM386.878 186.245h-138.171c-15.254 0-27.634-12.352-27.634-27.634v-194.959c0-11.164 6.743-21.278 17.050-25.534 10.363-4.311 22.218-1.907 30.121 5.997l49.548 49.548 49.548-49.548c5.278-5.278 12.352-8.097 19.537-8.097 3.565 0 7.157 0.663 10.584 2.1 10.308 4.283 17.050 14.37 17.050 25.534v194.959c0 15.282-12.352 27.634-27.634 27.634zM359.244 30.36l-21.914 21.914c-5.389 5.389-12.463 8.097-19.537 8.097s-14.149-2.708-19.537-8.097l-21.914-21.914v100.616h82.902v-100.616zM635.585 186.245c-15.282 0-27.634-12.352-27.634-27.634v-27.634h-138.171c-15.282 0-27.634-12.352-27.634-27.634s12.352-27.634 27.634-27.634h138.171c30.978 0 55.268 23.6 55.268 53.748v29.154c0 15.282-12.352 27.634-27.634 27.634z" horiz-adv-x="663"/>
<glyph unicode="" d="M704 96c35.328 0 64 28.704 64 64v736c0 35.296-28.672 64-64 64h-640c-35.296 0-64-28.704-64-64v-736c0-6.528 1.28-12.704 3.104-18.656-1.888-4.096-3.104-8.544-3.104-13.344v-97.76c0-51.968 43.072-94.24 96-94.24h608c35.872 0 64 27.328 64 62.24v33.76c0 17.696-14.304 32-32 32s-32-14.304-32-32v-32h-608c-17.952 0-32 13.28-32 30.24v65.76h640zM544 896v-308.512l-25.376 25.376c-6.24 6.24-14.432 9.376-22.624 9.376s-16.384-3.136-22.624-9.376l-25.376-25.376v308.512h96zM64 896h320v-385.76c0-12.928 7.808-24.64 19.744-29.568 11.968-5.024 25.696-2.208 34.88 6.944l57.376 57.376 57.376-57.376c6.112-6.112 14.304-9.376 22.624-9.376 4.128 0 8.288 0.768 12.256 2.432 11.936 4.96 19.744 16.64 19.744 29.568v385.76h96l0.064-736h-640.064v736z" horiz-adv-x="768"/>
<glyph unicode="" d="M835.332 286.316c-14.902 0-26.947-12.045-26.947-26.947v-143.171l-296.421-113.987v203.264c0 14.902-12.045 26.947-26.947 26.947s-26.947-12.045-26.947-26.947v-203.291l-296.421 113.987v143.198c0 14.902-12.045 26.947-26.947 26.947s-26.947-12.045-26.947-26.947v-161.684c0-11.156 6.872-21.154 17.273-25.169l350.316-134.737c3.126-1.186 6.387-1.779 9.674-1.779s6.548 0.593 9.674 1.779l350.316 134.737c10.402 4.015 17.273 14.013 17.273 25.169v161.684c0 14.902-12.045 26.947-26.947 26.947zM964.114 410.813l-107.789 134.737c-0.269 0.539-0.781 0.808-1.32 1.347-1.644 1.644-3.53 3.234-5.416 4.581-1.051 0.566-1.859 1.078-2.695 1.644-0.781 0.269-1.347 0.539-1.886 0.781l-170.577 65.752-41.741-41.768 127.461-49.044-275.133-105.903-275.133 105.903 127.461 49.044-41.768 41.768-170.577-65.752c-0.539-0.269-1.078-0.539-1.886-1.078-0.808-0.269-1.617-0.781-2.425-1.347-2.156-1.347-4.042-2.937-5.659-4.581-0.539-0.539-1.078-0.808-1.347-1.347l-107.789-134.737c-5.389-6.467-7.276-15.36-4.851-23.714 2.156-8.381 8.084-15.117 16.168-18.055l350.316-134.737c11.048-4.312 23.444-1.078 30.72 8.354l86.771 108.328 86.797-108.355c5.093-6.71 12.908-10.213 20.992-10.213 3.234 0 6.467 0.539 9.674 1.886l350.316 134.737c8.111 2.937 14.040 9.674 16.195 18.055 2.425 8.354 0.539 17.246-4.877 23.714zM368.604 291.705l-297.768 114.257 72.488 90.516 297.499-114.257-72.219-90.516zM601.429 291.705l-72.219 90.516 297.499 114.284 72.488-90.516-297.768-114.284zM446.751 544.741c10.509-10.509 24.522-15.899 38.265-15.899s27.486 5.389 37.996 15.899l133.659 133.389c10.509 9.971 16.977 23.983 16.977 39.343 0 14.821-5.955 28.295-15.629 37.996-9.674 9.971-23.148 15.899-38.265 15.899h-26.947v134.737c0 29.642-24.253 53.895-53.895 53.895h-107.789c-29.912 0-53.895-24.253-53.895-53.895v-134.737h-26.947c-21.827 0-41.499-13.204-49.853-33.145-8.354-20.211-3.773-43.358 11.587-58.745l134.737-134.737zM431.122 717.474v188.632h107.789v-188.632h80.842l-134.737-134.737-134.737 134.737h80.842z" horiz-adv-x="970"/>
<glyph unicode="" d="M906.932 316.343c-16.179 0-29.257-13.078-29.257-29.257v-155.443l-321.829-123.758v220.687c0 16.179-13.078 29.257-29.257 29.257s-29.257-13.078-29.257-29.257v-220.716l-321.829 123.758v155.472c0 16.179-13.078 29.257-29.257 29.257s-29.257-13.078-29.257-29.257v-175.543c0-12.112 7.461-22.967 18.754-27.326l380.343-146.286c3.394-1.287 6.934-1.931 10.503-1.931s7.109 0.644 10.503 1.931l380.343 146.286c11.293 4.359 18.754 15.214 18.754 27.326v175.543c0 16.179-13.078 29.257-29.257 29.257zM432.381 268.946l94.208 117.614 94.237-117.643c5.53-7.285 14.014-11.088 22.791-11.088 3.511 0 7.022 0.585 10.503 2.048l191.664 73.728c-3.218 1.755-6.144 3.803-9.070 6.144l-46.811 35.109-136.923-52.663-78.409 98.275 113.488 43.593c-9.918 17.291-15.184 36.893-15.184 56.788l-146.286-56.174-298.715 114.981 269.458 103.57v-132.827c0-16.091 13.166-29.257 29.257-29.257s29.257 13.166 29.257 29.257v132.827l168.814-64.951 55.325 41.545-242.834 93.301c-3.218 1.17-6.437 1.785-9.655 1.785-0.322 0.293-0.614 0.293-0.907 0.293s-0.585 0-0.878-0.293c-3.218 0-6.437-0.614-9.655-1.785l-380.343-146.286c-0.585-0.293-1.17-0.585-2.048-1.17-0.878-0.293-1.755-0.848-2.633-1.463-2.341-1.463-4.389-3.189-6.144-4.974-0.585-0.585-1.17-0.878-1.463-1.463l-117.029-146.286c-5.851-7.022-7.899-16.677-5.266-25.746 2.341-9.099 8.777-16.413 17.554-19.602l380.343-146.286c11.995-4.652 25.454-1.141 33.353 9.099zM155.609 544.549l322.999-124.050-78.409-98.304-323.291 124.050 78.702 98.304zM1082.475 608.914h-117.029c0 22.235-12.581 42.423-32.475 52.37-8.192 4.096-17.262 6.144-26.039 6.144-12.288 0-24.869-3.803-35.109-11.703l-117.029-87.771c-14.629-11.118-23.406-28.379-23.406-46.811s8.777-35.694 23.406-46.811l117.029-87.771c10.24-7.899 22.821-11.703 35.109-11.703 8.777 0 17.847 2.048 26.039 6.144 19.895 9.947 32.475 30.135 32.475 52.37h117.029c32.183 0 58.514 26.331 58.514 58.514v58.514c0 32.183-26.331 58.514-58.514 58.514zM1082.475 491.886h-175.543v-58.514l-117.029 87.771 117.029 87.771v-58.514h175.543v-58.514zM789.904 725.943h117.029c0-22.235 12.581-42.423 32.475-52.37 8.192-4.096 17.262-6.144 26.039-6.144 12.288 0 24.869 3.803 35.109 11.703l117.029 87.771c14.629 11.118 23.406 28.379 23.406 46.811s-8.777 35.694-23.406 46.811l-117.029 87.771c-10.24 7.899-22.821 11.703-35.109 11.703-8.777 0-17.847-2.048-26.039-6.144-19.895-9.947-32.475-30.135-32.475-52.37h-117.029c-32.183 0-58.514-26.331-58.514-58.514v-58.514c0-32.183 26.331-58.514 58.514-58.514zM789.904 842.971h175.543v58.514l117.029-87.771-117.029-87.771v58.514h-175.543v58.514z" horiz-adv-x="1141"/>
<glyph unicode="" d="M1021.44 753.445c-0.512 1.243-1.134 2.341-1.755 3.511-1.39 2.743-3.035 5.23-5.047 7.497-0.914 1.024-1.719 2.048-2.743 2.926-2.45 2.304-5.303 4.133-8.375 5.632-0.768 0.439-1.499 1.024-2.341 1.353-0.219 0.11-0.366 0.293-0.585 0.366l-475.429 182.857c-8.411 3.218-17.81 3.218-26.258 0l-475.429-182.857c-0.219-0.073-0.366-0.256-0.585-0.366-0.878-0.329-1.536-0.914-2.377-1.353-3.072-1.499-5.888-3.365-8.375-5.632-1.024-0.878-1.829-1.902-2.743-2.926-2.011-2.304-3.657-4.754-5.047-7.497-0.622-1.134-1.243-2.267-1.719-3.511-1.573-4.096-2.633-8.375-2.633-12.873v-585.143c0-15.141 9.326-28.709 23.442-34.158l475.429-182.857c4.206-1.609 8.667-2.414 13.129-2.414s8.923 0.805 13.129 2.414l475.429 182.857c14.117 5.449 23.442 19.017 23.442 34.158v585.143c0 4.498-1.061 8.777-2.56 12.873zM512 596.882l-150.455 57.893 373.577 143.653 150.455-57.856-373.577-143.689zM512 884.261l121.198-46.592-353.755-136.082c-5.595-2.158-10.021-5.742-13.751-9.911l-127.232 48.896 373.541 143.689zM73.143 687.323l402.286-154.734v-506.734l-402.286 154.697v506.77zM548.571 25.819v506.734l402.286 154.734v-506.77l-402.286-154.697zM861.659 587.995c-10.057 6.802-22.784 8.192-34.085 3.694l-182.857-73.143c-13.897-5.595-23.003-19.017-23.003-33.975v-146.286c0-12.142 5.998-23.479 16.055-30.281 6.144-4.133 13.312-6.29 20.517-6.29 4.571 0 9.216 0.841 13.568 2.597l182.857 73.143c13.897 5.595 23.003 19.017 23.003 33.975v146.286c0 12.142-5.998 23.479-16.055 30.281zM804.571 436.187l-109.714-43.886v67.547l109.714 43.886v-67.547zM426.423 360.265l-140.617 139.191c-15.031 14.958-38.766 21.687-55.625 21.687h-69.595c-29.477 0-50.871-21.577-50.871-51.273v-69.632c0-16.128 6.107-40.521 23.296-56.027l156.197-142.080c9.874-8.923 22.528-13.861 35.621-13.861 15.689 0 30.501 6.985 40.777 19.273l64.366 77.495c18.359 21.833 16.859 54.784-3.547 75.227zM322.706 270.446l-138.679 125.733c-0.512 0.841-1.134 3.072-1.207 4.023v47.799h47.25c1.426-0.037 4.389-0.878 4.096-0.439l129.353-128-40.814-49.115z"/>
<glyph unicode="" d="M902.504 284.444c-15.673 0-30.72 2.844-44.658 8.249-2.844-4.551-4.551-9.671-4.551-15.36v-151.040l-312.889-120.32v214.471c0 15.644-12.8 28.444-28.444 28.444s-28.444-12.8-28.444-28.444v-214.471l-312.889 120.32v151.040c0 15.644-12.8 28.444-28.444 28.444s-28.444-12.8-28.444-28.444v-170.667c0-11.662 7.111-22.471 18.204-26.453l369.778-142.222c3.413-1.422 6.827-1.991 10.24-1.991s6.827 0.569 10.24 1.991l369.778 142.222c11.093 3.982 18.204 14.791 18.204 26.453v170.667c0 2.56-0.284 5.12-1.138 7.396-2.276-0.284-4.267-0.284-6.542-0.284zM420.371 259.698l91.591 114.347 91.591-114.375c5.404-7.083 13.653-10.78 22.187-10.78 3.413 0 6.827 0.569 10.24 1.991l179.484 69.12c-5.12 4.551-9.671 9.671-13.938 15.36-7.936 10.524-15.644 21.049-23.040 31.289l-143.644-55.182-76.231 95.573 152.462 58.596c-11.093 17.067-20.764 33.564-29.867 49.493l-169.244-65.138-290.418 111.787 261.973 100.693v-129.138c0-15.644 12.8-28.444 28.444-28.444s28.444 12.8 28.444 28.444v129.138l87.609-33.564c-8.846 24.434-14.222 46.905-16.213 67.1l-89.572 34.418c-3.129 1.138-6.286 1.735-9.387 1.735-0.313 0.284-0.597 0.284-0.882 0.284s-0.569 0-0.853-0.284c-3.1 0-6.258-0.597-9.387-1.735l-369.778-142.222c-0.569-0.284-1.138-0.569-1.963-1.138-0.853-0.284-1.735-0.825-2.56-1.422-2.276-1.422-4.267-3.1-6.002-4.836-0.569-0.569-1.109-0.853-1.422-1.422l-113.778-142.222c-5.689-6.827-7.68-16.213-5.12-25.031 2.276-8.846 8.533-15.957 17.067-19.058l369.778-142.222c11.662-4.523 24.747-1.109 32.427 8.846zM151.286 527.644l314.027-120.604-76.231-95.573-314.311 120.604 76.516 95.573zM902.504 851.058c-70.827 0-128.313-57.742-128.313-128.284 0-70.827 57.486-128.597 128.313-128.597 70.798 0 128.284 57.742 128.284 128.597 0 70.542-57.458 128.284-128.284 128.284zM902.504 651.093c-39.282 0-71.424 32.142-71.424 71.708 0 39.253 32.142 71.396 71.424 71.396 39.538 0 71.396-32.142 71.396-71.396 0-39.566-31.858-71.708-71.396-71.708zM902.504 960c-129.735 0-235.264-105.529-235.264-235.236 0-95.033 112.64-258.873 179.769-348.16 13.369-17.92 33.82-28.16 55.467-28.16 21.902 0 42.069 10.24 55.438 28.16 67.186 89.316 179.826 253.156 179.826 348.16 0 129.707-105.529 235.236-235.236 235.236zM912.744 411.022c-2.844-3.698-6.514-5.404-10.212-5.404-3.726 0-7.424 1.735-9.984 5.148-105.529 140.231-168.391 257.707-168.391 314.027 0 98.418 80.213 178.347 178.375 178.347 98.418 0 178.347-79.929 178.347-178.347-0.028-56.348-62.891-173.824-168.135-313.771z" horiz-adv-x="1138"/>
<glyph unicode="" d="M961.898 339.394c-17.16 0-31.030-13.871-31.030-31.030v-164.864l-341.333-131.258v234.062c0 17.16-13.871 31.030-31.030 31.030s-31.030-13.871-31.030-31.030v-234.093l-341.333 131.258v164.895c0 17.16-13.871 31.030-31.030 31.030s-31.030-13.871-31.030-31.030v-186.182c0-12.847 7.913-24.359 19.89-28.982l403.394-155.152c3.6-1.365 7.354-2.048 11.14-2.048s7.54 0.683 11.14 2.048l403.394 155.152c11.978 4.624 19.89 16.136 19.89 28.982v186.182c0 17.16-13.871 31.030-31.030 31.030zM458.586 289.125l99.918 124.742 99.918-124.773c5.896-7.727 14.895-11.76 24.204-11.76 3.724 0 7.447 0.621 11.171 2.172l211.316 81.299c-26.376 9.619-50.89 22.342-73.542 38.136l-139.016-53.341-83.161 104.262 125.983 48.407c-11.171 17.377-20.48 35.995-28.238 55.544l-148.635-57.096-316.819 121.949 285.789 109.847v-140.878c0-17.067 13.964-31.030 31.030-31.030s31.030 13.964 31.030 31.030v140.878l93.401-35.995c0.652 21.721 3.413 43.132 8.068 63.612l-121.297 46.545c-3.413 1.241-6.858 1.893-10.24 1.893-0.341 0.279-0.652 0.279-0.962 0.279s-0.621 0-0.931-0.31c-3.382 0-6.827-0.652-10.24-1.893l-403.394-155.152c-0.621-0.31-1.241-0.621-2.141-1.241-0.931-0.31-1.893-0.9-2.793-1.552-2.513-1.52-4.686-3.382-6.547-5.244-0.621-0.621-1.21-0.931-1.552-1.552l-124.121-155.152c-6.206-7.447-8.378-17.687-5.585-27.307 2.482-9.65 9.309-17.408 18.618-20.79l403.394-155.152c12.722-4.965 26.996-1.241 35.375 9.619zM165.040 581.43l342.575-131.568-83.161-104.262-342.885 131.568 83.472 104.262zM1117.049 711.758h-62.061v62.061c0 17.067-13.964 31.030-31.030 31.030s-31.030-13.964-31.030-31.030v-62.061h-62.061c-17.067 0-31.030-13.964-31.030-31.030 0-1.862 0.31-3.724 0.621-5.275 2.482-14.584 15.205-25.755 30.41-25.755h62.061v-62.061c0-17.067 13.964-31.030 31.030-31.030 8.068 0 15.205 3.103 20.79 8.068 6.206 5.585 10.24 13.964 10.24 22.962v62.061h62.061c17.067 0 31.030 13.964 31.030 31.030s-13.964 31.030-31.030 31.030zM1023.959 960c-135.913 0-249.484-97.745-274.308-226.521-3.103-17.067-4.965-34.754-4.965-52.752 0-4.034 0-8.068 0.31-12.102 1.241-32.613 8.409-63.643 20.17-92.47 7.758-19.549 17.687-37.857 29.789-54.924 27.896-40.37 66.405-72.952 111.399-93.743 32.272-15.205 67.646-24.204 105.193-25.755 4.034-0.279 8.378-0.279 12.412-0.279 153.91 0 279.273 125.362 279.273 279.273s-125.362 279.273-279.273 279.273zM1110.843 481.823c-26.376-11.792-55.855-18.308-86.885-18.308-7.137 0-14.274 0.31-21.101 1.241-59.578 5.585-112.019 35.375-147.735 79.438-13.343 16.167-24.173 34.444-32.272 54.303-5.865 14.274-10.209 29.479-12.691 45.304-2.482 11.792-3.413 24.204-3.413 36.926 0 10.24 0.621 20.17 2.482 29.789 13.964 105.813 105.193 187.423 214.73 187.423 119.777 0 217.212-97.435 217.212-217.212 0-88.747-53.682-165.392-130.327-198.904z" horiz-adv-x="1303"/>
<glyph unicode="" d="M1133.717 411.429c-20.224 0-36.571-16.347-36.571-36.571v-194.304l-402.286-154.697v275.858c0 20.224-16.347 36.571-36.571 36.571s-36.571-16.347-36.571-36.571v-275.895l-402.286 154.697v194.341c0 20.224-16.347 36.571-36.571 36.571s-36.571-16.347-36.571-36.571v-219.429c0-15.141 9.326-28.709 23.442-34.158l475.429-182.857c4.242-1.609 8.667-2.414 13.129-2.414s8.887 0.805 13.129 2.414l475.429 182.857c14.117 5.449 23.442 19.017 23.442 34.158v219.429c0 20.224-16.347 36.571-36.571 36.571zM1308.565 580.571l-146.286 182.857c-0.549 0.695-1.317 0.951-1.902 1.573-2.231 2.414-4.645 4.462-7.424 6.217-1.243 0.768-2.377 1.499-3.694 2.121-0.841 0.402-1.536 1.024-2.414 1.39l-475.429 182.857c-3.913 1.499-8.046 2.121-12.142 2.231-0.329 0-0.622 0.183-0.987 0.183s-0.658-0.183-0.987-0.219c-4.096-0.11-8.229-0.731-12.142-2.231l-475.429-182.857c-0.914-0.366-1.646-1.024-2.523-1.463-1.207-0.585-2.304-1.243-3.474-1.975-2.853-1.792-5.339-3.84-7.534-6.29-0.585-0.622-1.353-0.914-1.902-1.573l-146.286-182.857c-7.278-9.106-9.801-21.138-6.729-32.439 3.035-11.264 11.301-20.407 22.126-24.576l475.429-182.857c14.848-5.705 31.707-1.17 41.728 11.301l117.723 147.2 117.723-147.163c7.095-8.85 17.701-13.714 28.562-13.714 4.389 0 8.85 0.768 13.129 2.414l475.429 182.857c10.862 4.169 19.090 13.312 22.126 24.576 3.109 11.301 0.585 23.333-6.693 32.439zM621.717 870.181v-166.181c0-20.224 16.347-36.571 36.571-36.571s36.571 16.347 36.571 36.571v166.181l336.969-129.609-373.541-143.689-373.541 143.689 336.969 129.609zM500.154 418.597l-403.785 155.282 98.341 122.917 403.749-155.319-98.304-122.88zM816.423 418.597l-98.304 122.88 403.749 155.319 98.341-122.917-403.785-155.282z" horiz-adv-x="1317"/>
<glyph unicode="" d="M199.805 359.212c-55.096 0-99.902-44.806-99.902-99.902s44.806-99.902 99.902-99.902c55.096 0 99.902 44.806 99.902 99.902s-44.806 99.902-99.902 99.902zM199.805 209.358c-27.548 0-49.951 22.403-49.951 49.951s22.403 49.951 49.951 49.951c27.548 0 49.951-22.403 49.951-49.951s-22.403-49.951-49.951-49.951zM699.317 359.212c-55.071 0-99.902-44.806-99.902-99.902s44.831-99.902 99.902-99.902c55.071 0 99.902 44.806 99.902 99.902s-44.831 99.902-99.902 99.902zM699.317 209.358c-27.573 0-49.951 22.403-49.951 49.951s22.378 49.951 49.951 49.951c27.573 0 49.951-22.403 49.951-49.951s-22.378-49.951-49.951-49.951zM724.293 960h-549.463c-96.406 0-174.829-79.048-174.829-176.203v-624.39c0-41.31 33.617-74.927 74.927-74.927 13.762 0 24.976-11.189 24.976-24.976v-49.951c0-40.56 33.617-73.553 74.927-73.553h49.951c41.31 0 74.927 32.993 74.927 73.553v49.951c0 14.036 11.664 26.349 24.976 26.349h249.756c13.312 0 24.976-12.313 24.976-26.349v-49.951c0-40.56 33.617-73.553 74.927-73.553h49.951c41.31 0 74.927 32.993 74.927 73.553v49.951c0 13.787 11.214 24.976 24.976 24.976 41.31 0 74.927 33.617 74.927 74.927v624.39c0 97.155-78.448 176.203-174.829 176.203zM849.171 159.407c0-13.787-11.214-24.976-24.976-24.976-41.31 0-74.927-33.617-74.927-74.927v-49.951c0-13.237-10.964-23.602-24.976-23.602h-49.951c-14.011 0-24.976 10.365-24.976 23.602v49.951c0 41.385-34.316 76.3-74.927 76.3h-249.756c-40.61 0-74.927-34.916-74.927-76.3v-49.951c0-13.237-10.964-23.602-24.976-23.602h-49.951c-14.011 0-24.976 10.365-24.976 23.602v49.951c0 41.31-33.617 74.927-74.927 74.927-13.762 0-24.976 11.189-24.976 24.976v624.39c0 68.458 57.194 126.252 124.878 126.252h549.463c67.709 0 124.878-57.794 124.878-126.252v-624.39zM724.293 885.073h-549.463c-55.096 0-99.902-45.431-99.902-101.276v-298.334c0-13.812 11.189-24.976 24.976-24.976h699.317c13.812 0 24.976 11.164 24.976 24.976v298.334c0 55.845-44.831 101.276-99.902 101.276zM174.829 835.122h549.463c27.074 0 49.951-23.502 49.951-51.325v-273.358h-649.366v273.358c0 27.823 22.878 51.325 49.951 51.325z" horiz-adv-x="899"/>
<glyph unicode="" d="M1227.612 592.794c-21.504 115.589-83.599 224.748-184.484 324.403-27.034 26.788-69.714 42.803-114.074 42.803-24.535 0-48.087-4.915-67.994-14.131-169.902-78.316-584.827-269.844-777.339-358.687l-26.337-12.165c-31.334-14.5-48.415-32.031-51.814-52.265-3.236-5.816-5.571-12.247-5.571-19.415v-485.417c0-45.179 36.741-81.92 81.92-81.92h1064.96c45.22 0 81.92 36.741 81.92 81.92v526.336c0 3.031-1.106 5.775-1.761 8.602 2.54 12.943 3.072 26.337 0.573 39.936zM81.92 263.68h1064.96v-40.96h-1064.96v40.96zM895.386 871.526c25.559 11.715 71.844 5.53 90.112-12.575 88.801-87.736 143.114-182.313 161.505-281.149 1.434-7.7-0.41-14.623-5.448-20.726-6.676-8.028-17.572-12.82-29.123-12.82h-926.269c209.551 96.748 557.261 257.188 709.222 327.27zM1146.88 468.48v-122.88h-1064.96v122.88c0.082 0 0.123 0 0.205 0 0 0 1053.696-3.236 1064.755 0zM81.92 17.92v122.88h1064.96v-122.88h-1064.96zM901.12 831.017c-67.748 0-122.88-55.132-122.88-122.88s55.132-122.88 122.88-122.88c67.748 0 122.88 55.132 122.88 122.88s-55.132 122.88-122.88 122.88zM901.12 667.177c-22.569 0-40.96 18.35-40.96 40.96s18.391 40.96 40.96 40.96c22.569 0 40.96-18.35 40.96-40.96s-18.391-40.96-40.96-40.96z" horiz-adv-x="1229"/>
<glyph unicode="" d="M332.108 157.405h-27.676c-15.222 0-27.676-12.454-27.676-27.676v-27.676c0-15.222 12.454-27.676 27.676-27.676h27.676c15.222 0 27.676 12.454 27.676 27.676v27.676c0 15.222-12.454 27.676-27.676 27.676zM332.108 295.784h-27.676c-15.222 0-27.676-12.454-27.676-27.676v-27.676c0-15.222 12.454-27.676 27.676-27.676h27.676c15.222 0 27.676 12.454 27.676 27.676v27.676c0 15.222-12.454 27.676-27.676 27.676zM332.108 434.162h-27.676c-15.222 0-27.676-12.454-27.676-27.676v-27.676c0-15.222 12.454-27.676 27.676-27.676h27.676c15.222 0 27.676 12.454 27.676 27.676v27.676c0 15.222-12.454 27.676-27.676 27.676zM332.108 572.541h-27.676c-15.222 0-27.676-12.454-27.676-27.676v-27.676c0-15.222 12.454-27.676 27.676-27.676h27.676c15.222 0 27.676 12.454 27.676 27.676v27.676c0 15.222-12.454 27.676-27.676 27.676zM193.73 434.162h-27.676c-15.222 0-27.676-12.454-27.676-27.676v-27.676c0-15.222 12.454-27.676 27.676-27.676h27.676c15.222 0 27.676 12.454 27.676 27.676v27.676c0 15.222-12.454 27.676-27.676 27.676zM193.73 157.405h-27.676c-15.222 0-27.676-12.454-27.676-27.676v-27.676c0-15.222 12.454-27.676 27.676-27.676h27.676c15.222 0 27.676 12.454 27.676 27.676v27.676c0 15.222-12.454 27.676-27.676 27.676zM193.73 295.784h-27.676c-15.222 0-27.676-12.454-27.676-27.676v-27.676c0-15.222 12.454-27.676 27.676-27.676h27.676c15.222 0 27.676 12.454 27.676 27.676v27.676c0 15.222-12.454 27.676-27.676 27.676zM470.486 157.405h-27.676c-15.222 0-27.676-12.454-27.676-27.676v-27.676c0-15.222 12.454-27.676 27.676-27.676h27.676c15.222 0 27.676 12.454 27.676 27.676v27.676c0 15.222-12.454 27.676-27.676 27.676zM193.73 572.541h-27.676c-15.222 0-27.676-12.454-27.676-27.676v-27.676c0-15.222 12.454-27.676 27.676-27.676h27.676c15.222 0 27.676 12.454 27.676 27.676v27.676c0 15.222-12.454 27.676-27.676 27.676zM608.865 434.162h-27.676c-15.222 0-27.676-12.454-27.676-27.676v-27.676c0-15.222 12.454-27.676 27.676-27.676h27.676c15.222 0 27.676 12.454 27.676 27.676v27.676c0 15.222-12.454 27.676-27.676 27.676zM608.865 295.784h-27.676c-15.222 0-27.676-12.454-27.676-27.676v-27.676c0-15.222 12.454-27.676 27.676-27.676h27.676c15.222 0 27.676 12.454 27.676 27.676v27.676c0 15.222-12.454 27.676-27.676 27.676zM608.865 572.541h-27.676c-15.222 0-27.676-12.454-27.676-27.676v-27.676c0-15.222 12.454-27.676 27.676-27.676h27.676c15.222 0 27.676 12.454 27.676 27.676v27.676c0 15.222-12.454 27.676-27.676 27.676zM608.865 793.946h-442.811c-15.222 0-27.676-12.454-27.676-27.676v-83.027c0-15.222 12.454-27.676 27.676-27.676h442.811c15.222 0 27.676 12.454 27.676 27.676v83.027c0 15.222-12.454 27.676-27.676 27.676zM581.189 710.919h-387.459v27.676h387.459v-27.676zM636.541 960h-498.162c-76.302 0-138.378-62.077-138.378-138.378v-747.243c0-76.302 62.077-138.378 138.378-138.378h498.162c76.302 0 138.378 62.077 138.378 138.378v747.243c0 76.302-62.077 138.378-138.378 138.378zM719.568 74.378c0-45.665-37.362-83.027-83.027-83.027h-498.162c-45.665 0-83.027 37.362-83.027 83.027v747.243c0 45.665 37.362 83.027 83.027 83.027h498.162c45.665 0 83.027-37.362 83.027-83.027v-747.243zM608.865 157.405h-27.676c-15.222 0-27.676-12.454-27.676-27.676v-27.676c0-15.222 12.454-27.676 27.676-27.676h27.676c15.222 0 27.676 12.454 27.676 27.676v27.676c0 15.222-12.454 27.676-27.676 27.676zM470.486 434.162h-27.676c-15.222 0-27.676-12.454-27.676-27.676v-27.676c0-15.222 12.454-27.676 27.676-27.676h27.676c15.222 0 27.676 12.454 27.676 27.676v27.676c0 15.222-12.454 27.676-27.676 27.676zM470.486 295.784h-27.676c-15.222 0-27.676-12.454-27.676-27.676v-27.676c0-15.222 12.454-27.676 27.676-27.676h27.676c15.222 0 27.676 12.454 27.676 27.676v27.676c0 15.222-12.454 27.676-27.676 27.676zM470.486 572.541h-27.676c-15.222 0-27.676-12.454-27.676-27.676v-27.676c0-15.222 12.454-27.676 27.676-27.676h27.676c15.222 0 27.676 12.454 27.676 27.676v27.676c0 15.222-12.454 27.676-27.676 27.676z" horiz-adv-x="775"/>
<glyph unicode="" d="M332.108 434.162h74.724l-90.527-151.109c-23.524-39.299-10.794-90.223 28.506-113.747 13.284-8.026 28.008-11.901 42.648-11.901 28.229 0 55.628 14.391 71.126 40.406l166.054 276.757c15.498 25.462 15.747 57.565 1.107 83.608-14.668 25.987-42.344 42.039-72.234 42.039h-221.405c-45.942 0-83.027-37.085-83.027-83.027s37.085-83.027 83.027-83.027zM332.108 544.865h221.405c9.936 0 19.069-5.258 24.078-14.115 4.982-8.607 4.705-19.373-0.304-27.676l-166.054-276.757c-5.231-8.856-14.364-13.561-23.773-13.561-4.982 0-9.686 1.384-14.115 3.875-13.284 8.026-17.463 24.908-9.686 37.916l140.869 234.966h-172.419c-15.222 0-27.676 12.454-27.676 27.676s12.454 27.676 27.676 27.676zM802.595 821.622h-83.027v55.351c0 45.665-37.362 83.027-83.027 83.027s-83.027-37.362-83.027-83.027v-55.351h-221.405v55.351c0 45.665-37.362 83.027-83.027 83.027s-83.027-37.362-83.027-83.027v-55.351h-83.027c-45.001 0-83.027-38.691-83.027-84.549v-719.568c0-44.945 37.251-81.505 83.027-81.505h719.568c45.776 0 83.027 36.56 83.027 81.505v719.568c0 45.859-38.026 84.549-83.027 84.549zM608.865 876.973c0 15.222 12.454 27.676 27.676 27.676s27.676-12.454 27.676-27.676v-166.054c0-15.222-12.454-27.676-27.676-27.676s-27.676 12.454-27.676 27.676v166.054zM221.405 876.973c0 15.222 12.454 27.676 27.676 27.676s27.676-12.454 27.676-27.676v-166.054c0-15.222-12.454-27.676-27.676-27.676s-27.676 12.454-27.676 27.676v166.054zM55.351 737.072c0 15.554 12.925 29.198 27.676 29.198h83.027v-55.351c0-45.665 37.362-83.027 83.027-83.027s83.027 37.362 83.027 83.027v55.351h221.405v-55.351c0-45.665 37.362-83.027 83.027-83.027s83.027 37.362 83.027 83.027v55.351h83.027c14.723 0 27.676-13.644 27.676-29.198v-608.865c0-14.668-12.15-26.154-27.676-26.154h-719.568c-15.526 0-27.676 11.485-27.676 26.154v608.865zM802.595-8.649h-719.568c-15.526 0-27.676 11.485-27.676 26.154v34.179c8.69-3.044 17.906-4.982 27.676-4.982h719.568c9.77 0 18.986 1.937 27.676 5.009v-34.179c0-14.696-12.15-26.181-27.676-26.181z" horiz-adv-x="886"/>
<glyph unicode="" d="M864 800h-64v64c0 52.8-43.2 96-96 96s-96-43.2-96-96v-64h-256v64c0 52.8-43.2 96-96 96s-96-43.2-96-96v-64h-64c-52.8 0-96-43.2-96-96v-672c0-52.8 43.2-96 96-96h768c52.8 0 96 43.2 96 96v672c0 52.8-43.2 96-96 96zM672 800v64c0 17.6 14.4 32 32 32s32-14.4 32-32v-128c0-17.6-14.4-32-32-32s-32 14.4-32 32v64zM224 800v64c0 17.6 14.4 32 32 32s32-14.4 32-32v-128c0-17.6-14.4-32-32-32s-32 14.4-32 32v64zM896 32c0-17.6-14.4-32-32-32h-768c-17.6 0-32 14.4-32 32v672c0 17.6 14.4 32 32 32h64c0-52.8 43.2-96 96-96s96 43.2 96 96h256c0-52.8 43.2-96 96-96s96 43.2 96 96h64c17.6 0 32-14.4 32-32v-672zM256 544h-64c-35.2 0-64-28.8-64-64v-64c0-35.2 28.8-64 64-64h64c35.2 0 64 28.8 64 64v64c0 35.2-28.8 64-64 64zM256 416h-64v64h64v-64zM512 544h-64c-35.2 0-64-28.8-64-64v-64c0-35.2 28.8-64 64-64h64c35.2 0 64 28.8 64 64v64c0 35.2-28.8 64-64 64zM512 416h-64v64h64v-64zM768 544h-64c-35.2 0-64-28.8-64-64v-64c0-35.2 28.8-64 64-64h64c35.2 0 64 28.8 64 64v64c0 35.2-28.8 64-64 64zM768 416h-64v64h64v-64zM256 288h-64c-35.2 0-64-28.8-64-64v-64c0-35.2 28.8-64 64-64h64c35.2 0 64 28.8 64 64v64c0 35.2-28.8 64-64 64zM256 160h-64v64h64v-64zM512 288h-64c-35.2 0-64-28.8-64-64v-64c0-35.2 28.8-64 64-64h64c35.2 0 64 28.8 64 64v64c0 35.2-28.8 64-64 64zM512 160h-64v64h64v-64zM768 288h-64c-35.2 0-64-28.8-64-64v-64c0-35.2 28.8-64 64-64h64c35.2 0 64 28.8 64 64v64c0 35.2-28.8 64-64 64zM768 160h-64v64h64v-64z" horiz-adv-x="960"/>
<glyph unicode="" d="M1351.68 591.36h-573.44c-67.748 0-122.88-55.132-122.88-122.88v-245.76c0-67.748 55.132-122.88 122.88-122.88h573.44c67.748 0 122.88 55.132 122.88 122.88v245.76c0 67.748-55.132 122.88-122.88 122.88zM1392.64 222.72c0-22.61-18.391-40.96-40.96-40.96h-573.44c-22.569 0-40.96 18.35-40.96 40.96v245.76c0 22.61 18.391 40.96 40.96 40.96h573.44c22.569 0 40.96-18.35 40.96-40.96v-245.76zM1474.56 791.982v45.138c0 67.748-55.132 122.88-122.88 122.88h-40.96c-67.748 0-122.88-55.132-122.88-122.88v-40.96h-1064.96c-67.748 0-122.88-55.132-122.88-122.88v-245.76c0-67.748 55.132-122.88 122.88-122.88h81.92v-163.84c0-112.927 91.873-204.8 204.8-204.8h1024c112.927 0 204.8 91.873 204.8 204.8v450.56c0 98.877-70.492 181.658-163.84 200.622zM1269.76 837.12c0 22.61 18.391 40.96 40.96 40.96h40.96c22.569 0 40.96-18.35 40.96-40.96v-40.96h-122.88v40.96zM122.88 386.56c-22.569 0-40.96 18.35-40.96 40.96v245.76c0 22.61 18.391 40.96 40.96 40.96h81.92v-327.68h-81.92zM1556.48 140.8c0-67.748-55.132-122.88-122.88-122.88h-1024c-67.748 0-122.88 55.132-122.88 122.88v573.44h1146.88c67.748 0 122.88-55.132 122.88-122.88v-450.56z" horiz-adv-x="1638"/>
<glyph unicode="" d="M518.589 732.117h-57.558l-17.758 54.613c-8.002 24.511-30.817 41.109-56.577 41.109s-48.605-16.598-56.577-41.109l-17.758-54.613h-57.409c-25.76 0-48.605-16.598-56.577-41.109s0.744-51.371 21.625-66.512l46.463-33.762-17.788-54.613c-7.972-24.511 0.744-51.371 21.625-66.512 10.441-7.585 22.726-11.363 34.981-11.363 12.285 0 24.54 3.778 34.981 11.363l46.433 33.732 46.463-33.762c10.441-7.555 22.726-11.363 34.981-11.363s24.54 3.778 34.981 11.363c20.852 15.17 29.567 42.001 21.625 66.512l-17.758 54.613 45.243 32.869c15.557 10.708 25.819 28.675 25.819 48.991-0.030 32.899-26.623 59.551-59.462 59.551zM436.996 613.461l31.114-95.722-81.414 59.164-81.414-59.164 31.114 95.722-81.414 59.164h100.63l31.084 95.722 31.114-95.722h100.63l-81.444-59.164zM699.027 841.017h-21.179l6.217 87.126c0.625 8.24-2.261 16.36-7.912 22.399-5.592 6.038-13.505 9.459-21.744 9.459h-535.425c-8.24 0-16.152-3.421-21.744-9.459-5.622-6.038-8.507-14.159-7.912-22.399l6.217-87.126h-21.179c-41.019 0-74.365-40.038-74.365-89.237v-118.983c0-49.2 33.345-89.237 74.365-89.237h42.447l2.261-31.858c0-0.030 0.030-0.059 0.030-0.089 1.19-146.617 120.738-265.511 267.593-265.511s266.404 118.894 267.593 265.511c0 0.030 0.030 0.059 0.030 0.089l2.261 31.858h42.447c41.019 0 74.365 40.038 74.365 89.237v118.983c0 49.2-33.345 89.237-74.365 89.237zM74.365 603.050c-5.116 0-14.873 11.601-14.873 29.746v118.983c0 18.145 9.757 29.746 14.873 29.746h25.433l12.731-178.475h-38.164zM386.696 305.592c-114.789 0-208.221 93.432-208.221 208.221 0 0.387-0.208 0.684-0.238 1.101 0 0.357 0.178 0.625 0.149 1.011l-27.455 384.584h471.531l-27.455-384.584c-0.030-0.387 0.149-0.654 0.149-1.011-0.030-0.416-0.238-0.714-0.238-1.101 0-114.789-93.432-208.221-208.221-208.221zM713.9 632.796c0-18.145-9.757-29.746-14.873-29.746h-38.164l12.731 178.475h25.433c5.116 0 14.873-11.601 14.873-29.746v-118.983zM475.933 96.746v89.862c0 9.31-4.343 18.085-11.779 23.737-7.436 5.592-17.044 7.377-26.057 4.878-9.162-2.588-15.587-4.819-21.030-6.752-10.471-3.659-13.594-4.759-30.37-4.759s-19.9 1.101-30.37 4.759c-5.443 1.904-11.869 4.164-21.030 6.752-8.953 2.499-18.591 0.714-26.057-4.878-7.436-5.652-11.779-14.427-11.779-23.737v-89.862l-83.467-113.361c-6.663-9.043-7.645-21.030-2.588-31.055s15.349-16.33 26.563-16.33h297.458c0.178 0 0.446 0 0.595 0 16.449 0 29.746 13.296 29.746 29.746 0 8.507-3.569 16.211-9.31 21.655l-80.522 109.346zM296.804-4.508l54.375 73.829c3.748 5.116 5.771 11.303 5.771 17.639v59.492c7.615-1.458 16.568-2.231 29.746-2.231s22.131 0.773 29.746 2.231v-59.492c0-6.336 2.023-12.523 5.771-17.639l54.375-73.829h-179.784z" horiz-adv-x="773"/>
<glyph unicode="" d="M271.059 960c-149.444 0-271.059-121.585-271.059-271.059v-481.882c0-149.474 121.615-271.059 271.059-271.059 149.474 0 271.059 121.585 271.059 271.059v481.882c0 149.474-121.585 271.059-271.059 271.059zM271.059 899.765c116.224 0 210.824-94.6 210.824-210.824v-210.824h-421.647v210.824c0 116.224 94.569 210.824 210.824 210.824zM271.059-3.765c-116.254 0-210.824 94.6-210.824 210.824v210.824h421.647v-210.824c0-116.224-94.6-210.824-210.824-210.824zM120.471 658.824c16.625 0 30.118 13.463 30.118 30.118 0 66.44 54.031 120.471 120.471 120.471 16.625 0 30.118 13.463 30.118 30.118s-13.493 30.118-30.118 30.118c-99.659 0-180.706-81.047-180.706-180.706 0-16.655 13.493-30.118 30.118-30.118z" horiz-adv-x="542"/>
<glyph unicode="" d="M1152-64h-96c-52.928 0-96 43.072-96 96v64h-576v-64c0-52.928-43.072-96-96-96h-96c-52.928 0-96 43.072-96 96v444.224l-96 48v115.776h138.912l72.576 169.088c26.624 86.176 114.176 150.912 204.512 150.912h512c90.304 0 177.856-64.608 204.512-150.592l72.576-169.408h138.912v-115.776l-96-48v-444.224c0-52.928-43.072-96-96-96zM320 160h704v-128c0-17.664 14.368-32 32-32h96c17.632 0 32 14.336 32 32v448c0 2.048-0.352 4.384-1.056 7.328l-6.112 24.832 103.168 51.616v12.224h-117.12l-91.136 213.248c-17.888 59.84-81.056 106.752-143.744 106.752h-512c-62.72 0-125.888-47.040-143.744-107.040l-1.28-3.488-89.888-209.472h-117.088v-12.224l103.584-51.808-6.752-25.216c-0.544-2.016-0.832-4.32-0.832-6.752v-448c0-17.664 14.368-32 32-32h96c17.632 0 32 14.336 32 32v128zM960 224c-70.56 0-128 57.408-128 128 0 15.36 2.656 30.016 7.936 43.552 17.056 50.048 65.504 84.448 120.064 84.448 52.736 0 100.736-33.088 119.488-82.368 5.6-14.24 8.512-29.696 8.512-45.632 0-38.88-17.376-75.232-47.712-99.744-22.656-18.272-51.168-28.256-80.288-28.256zM960 416c-27.2 0-51.328-17.024-59.968-42.368-2.784-7.264-4.032-14.304-4.032-21.632 0-35.296 28.672-64 64-64 14.592 0 28.8 4.992 40.096 14.048 15.168 12.256 23.904 30.528 23.904 49.952 0 7.904-1.408 15.456-4.192 22.528-9.632 25.312-33.056 41.472-59.808 41.472zM352 224c-3.296 0-8.032 0-13.28 0.864-31.456 2.944-60.512 17.76-81.984 41.856-21.056 23.264-32.736 53.632-32.736 85.28 0 19.328 4.448 38.656 12.8 55.904 21.856 44.512 65.952 72.096 115.2 72.096 54.56 0 103.008-34.4 120.544-85.632 4.8-12.352 7.456-27.008 7.456-42.368 0-70.592-57.408-128-128-128zM352 416c-24.64 0-46.72-13.888-57.664-36.192-4.128-8.48-6.336-18.112-6.336-27.808 0-15.744 5.824-30.88 16.352-42.528 11.008-12.352 25.568-19.712 41.184-20.928l4.288-0.64c37.472 0.096 66.176 28.8 66.176 64.096 0 7.328-1.248 14.368-3.584 20.448-9.12 26.528-33.216 43.552-60.416 43.552zM1110.496 512h-876.992l69.28 266.624c14.144 48.288 63.744 85.376 113.216 85.376h96v-32c0-17.664 14.368-32 32-32h224c17.632 0 32 14.336 32 32v32h128c49.472 0 99.072-37.088 112.928-84.448l69.568-267.552zM316.256 576h711.488l-48.48 186.496c-5.632 19.2-30.208 37.504-51.264 37.504h-69.504c-13.184-37.248-48.768-64-90.496-64h-224c-41.728 0-77.312 26.752-90.528 64h-37.472c-21.088 0-45.632-18.304-51.552-38.432l-48.192-185.568z" horiz-adv-x="1344"/>
<glyph unicode="" d="M992.774 547.216c-102.173 188.539-268.665 334.231-468.788 410.421-7.424 3.040-15.808 3.168-23.359 0.256-200.443-76.158-367.159-222.010-469.844-411.413-20.415-40.191-30.783-83.518-30.783-128.861 0-156.924 127.677-284.633 284.633-284.633 44.671 0 87.966 10.432 127.037 30.207-18.272-65.278-40.959-109.469-86.27-177.467-6.56-9.824-7.168-22.431-1.6-32.831 5.536-10.4 16.384-16.896 28.191-16.896h319.992c0.256 0.032 0.448 0.032 0.64 0 17.696 0 31.999 14.304 31.999 31.999 0 7.328-2.464 14.112-6.624 19.519-5.088 10.016-10.624 20.479-16.448 31.487-21.055 39.775-45.631 86.206-65.182 142.172 38.015-18.464 79.838-28.223 123.005-28.223 156.924 0 284.633 127.677 284.633 284.633-0.032 45.375-10.4 88.702-31.231 129.629zM739.341 196.985c-58.015 0-113.053 22.879-154.94 64.414-9.984 9.888-25.279 12.16-37.727 5.44-12.384-6.656-18.976-20.671-16.192-34.495 19.903-98.493 57.119-172.444 88.67-232.346h-209.019c42.911 72.094 62.526 129.565 83.294 232.346 2.784 13.824-3.808 27.839-16.192 34.495-12.416 6.72-27.711 4.448-37.727-5.44-41.887-41.535-96.894-64.414-154.94-64.414-121.661 0-220.634 98.973-220.634 220.634 0 35.167 8 68.734 23.423 99.101 93.054 171.612 243.514 305.080 424.565 376.918 180.987-71.774 331.447-205.243 424.181-376.182 15.872-31.103 23.871-64.702 23.871-99.837 0-121.661-98.973-220.634-220.634-220.634z"/>
<glyph unicode="" d="M857.943 627.892h-83.027c-12.703 0-23.746-8.662-26.845-20.978l-105.472-421.833h-53.635l74.392 297.735c2.076 8.275 0.221 17.021-5.037 23.718-5.203 6.725-13.257 10.655-21.781 10.655h-608.865c-8.524 0-16.578-3.93-21.808-10.655-5.231-6.698-7.113-15.471-5.037-23.718l83.027-332.108c3.1-12.343 14.142-20.978 26.845-20.978h442.23c0.194 0 0.387 0 0.581 0s0.387 0 0.581 0h110.122c12.703 0 23.746 8.662 26.845 20.978l105.472 421.833h61.412c15.305 0 27.676 12.371 27.676 27.676s-12.371 27.676-27.676 27.676zM265.297 295.784l-4.594 55.351h142.806l-4.594-55.351h-133.618zM394.293 240.432l-4.622-55.351h-115.131l-4.622 55.351h124.374zM90.801 351.135h114.384l4.594-55.351h-105.14l-13.838 55.351zM256.081 406.486l-4.622 55.351h161.294l-4.622-55.351h-152.050zM459.026 351.135h114.384l-13.838-55.351h-105.14l4.594 55.351zM587.248 406.486h-123.6l4.622 55.351h132.816l-13.838-55.351zM195.941 461.838l4.622-55.351h-123.6l-13.838 55.351h132.816zM118.477 240.432h95.924l4.622-55.351h-86.708l-13.838 55.351zM445.188 185.081l4.622 55.351h95.924l-13.838-55.351h-86.708zM166.052 102.054c-45.776 0-83.027-37.251-83.027-83.027s37.251-83.027 83.027-83.027c45.776 0 83.027 37.251 83.027 83.027s-37.251 83.027-83.027 83.027zM166.052-8.649c-15.277 0-27.676 12.399-27.676 27.676s12.399 27.676 27.676 27.676c15.277 0 27.676-12.399 27.676-27.676s-12.399-27.676-27.676-27.676zM525.835 102.054c-45.776 0-83.027-37.251-83.027-83.027s37.251-83.027 83.027-83.027c45.776 0 83.027 37.251 83.027 83.027s-37.251 83.027-83.027 83.027zM525.835-8.649c-15.277 0-27.676 12.399-27.676 27.676s12.399 27.676 27.676 27.676c15.277 0 27.676-12.399 27.676-27.676s-12.399-27.676-27.676-27.676zM288.876 591.803c10.489-13.146 26.403-20.784 43.229-20.784s32.74 7.638 43.229 20.784l109.54 136.912c8.33 9.686 13.367 23.026 13.367 36.781 0 30.554-24.742 56.099-55.296 56.099h-0.138v81.533c0 30.582-24.797 56.874-55.351 56.874h-110.703c-30.554 0-55.351-26.292-55.351-56.874v-83.027c-21.283 0-40.683-12.177-49.899-31.384-9.216-19.152-6.614-41.956 6.67-58.534l110.703-138.378zM276.754 766.27v138.378h110.703v-138.378h55.351l-110.703-138.378-110.703 138.378h55.351z" horiz-adv-x="886"/>
<glyph unicode="" d="M1299.449 790.901h-102.588c-15.696 0-29.34-10.703-33.17-25.921l-130.321-521.216h-66.306l91.953 367.881c2.565 10.225 0.274 21.031-6.224 29.306-6.429 8.31-16.38 13.165-26.912 13.165h-391.1c-18.91 0-34.196-15.286-34.196-34.196s15.286-34.196 34.196-34.196h114.625l-5.711-68.392h-218.444c-0.479 0-0.855-0.274-1.334-0.274s-0.889 0.205-1.402 0.171c-1.915-0.171-3.522-1.060-5.3-1.505-2.189-0.581-4.411-0.889-6.429-1.881-2.018-0.923-3.591-2.325-5.369-3.591-1.778-1.334-3.591-2.462-5.095-4.069-1.47-1.607-2.428-3.488-3.556-5.335-1.163-1.881-2.428-3.591-3.249-5.711-0.787-2.154-0.957-4.445-1.334-6.702-0.308-1.812-1.060-3.42-1.060-5.266 0-0.479 0.274-0.855 0.274-1.334 0.034-0.479-0.205-0.889-0.171-1.402l7.899-99.887h-157.165c-1.47 0-2.736-0.684-4.138-0.821s-2.736 0.171-4.138-0.205c-0.855-0.239-1.47-0.821-2.291-1.094-2.325-0.752-4.411-1.847-6.463-3.078-1.812-1.060-3.522-2.086-5.061-3.42-1.71-1.505-3.043-3.18-4.445-4.958-1.334-1.71-2.565-3.351-3.556-5.266s-1.573-3.898-2.154-5.984c-0.684-2.223-1.197-4.411-1.368-6.771-0.103-0.889-0.581-1.676-0.581-2.599 0-1.47 0.684-2.736 0.821-4.172 0.171-1.368-0.137-2.701 0.205-4.104l34.196-136.784c3.83-15.251 17.474-25.921 33.17-25.921h683.921c15.696 0 29.34 10.703 33.17 25.921l130.321 521.216h75.881c18.91 0 34.196 15.286 34.196 34.196s-15.286 34.196-34.196 34.196zM789.449 243.764l5.711 68.392h118.558l-17.098-68.392h-107.17zM720.852 243.764h-142.119l-5.471 68.392h153.301l-5.711-68.392zM930.816 380.548h-129.945l5.677 68.392h141.332l-17.064-68.392zM817.969 585.724h164.107l-17.098-68.392h-152.719l5.711 68.392zM562.285 448.94h175.665l-5.677-68.392h-164.517l-5.471 68.392zM385.731 312.156h118.865l5.471-68.392h-107.205l-17.132 68.392zM547.136 686.432c0 150.839-122.73 273.568-273.568 273.568s-273.568-122.73-273.568-273.568c0-150.839 122.73-273.568 273.568-273.568s273.568 122.73 273.568 273.568zM273.568 481.256c-113.155 0-205.176 92.022-205.176 205.176s92.022 205.176 205.176 205.176c113.155 0 205.176-92.022 205.176-205.176s-92.022-205.176-205.176-205.176zM376.156 720.628h-205.176c-18.91 0-34.196-15.286-34.196-34.196s15.286-34.196 34.196-34.196h205.176c18.91 0 34.196 15.286 34.196 34.196s-15.286 34.196-34.196 34.196zM444.548 141.176c-56.56 0-102.588-46.028-102.588-102.588s46.028-102.588 102.588-102.588c56.56 0 102.588 46.028 102.588 102.588s-46.028 102.588-102.588 102.588zM444.548 4.392c-18.876 0-34.196 15.32-34.196 34.196s15.32 34.196 34.196 34.196c18.876 0 34.196-15.32 34.196-34.196s-15.32-34.196-34.196-34.196zM889.097 141.176c-56.56 0-102.588-46.028-102.588-102.588s46.028-102.588 102.588-102.588c56.56 0 102.588 46.028 102.588 102.588s-46.028 102.588-102.588 102.588zM889.097 4.392c-18.876 0-34.196 15.32-34.196 34.196s15.32 34.196 34.196 34.196c18.876 0 34.196-15.32 34.196-34.196s-15.32-34.196-34.196-34.196z" horiz-adv-x="1334"/>
<glyph unicode="" d="M1299.449 790.901h-102.588c-15.696 0-29.34-10.703-33.17-25.921l-130.321-521.216h-66.306l91.953 367.881c2.565 10.225 0.274 21.031-6.224 29.306-6.429 8.31-16.38 13.165-26.912 13.165h-391.1c-18.91 0-34.196-15.286-34.196-34.196s15.286-34.196 34.196-34.196h114.625l-5.711-68.392h-218.444c-0.479 0-0.855-0.239-1.334-0.274-0.479 0-0.889 0.205-1.402 0.171-1.915-0.171-3.522-1.060-5.3-1.505-2.189-0.581-4.411-0.889-6.429-1.881-2.018-0.923-3.591-2.325-5.369-3.591-1.778-1.334-3.591-2.462-5.095-4.069-1.47-1.607-2.428-3.488-3.556-5.335-1.163-1.881-2.428-3.591-3.249-5.711-0.787-2.154-0.957-4.445-1.334-6.702-0.308-1.812-1.060-3.42-1.060-5.266 0-0.479 0.274-0.855 0.274-1.334 0.034-0.479-0.205-0.889-0.171-1.402l7.899-99.887h-157.165c-1.47 0-2.736-0.684-4.138-0.821s-2.736 0.171-4.138-0.205c-0.855-0.239-1.47-0.821-2.291-1.094-2.325-0.752-4.411-1.847-6.463-3.078-1.812-1.060-3.522-2.086-5.061-3.42-1.71-1.505-3.043-3.18-4.445-4.958-1.334-1.71-2.565-3.351-3.556-5.266s-1.573-3.898-2.154-5.984c-0.684-2.223-1.197-4.411-1.368-6.771-0.103-0.889-0.581-1.676-0.581-2.599 0-1.47 0.684-2.736 0.821-4.172 0.171-1.368-0.137-2.701 0.205-4.104l34.196-136.784c3.83-15.251 17.474-25.921 33.17-25.921h683.921c15.696 0 29.34 10.703 33.17 25.921l130.321 521.216h75.881c18.91 0 34.196 15.286 34.196 34.196s-15.286 34.196-34.196 34.196zM789.449 243.764l5.711 68.392h118.558l-17.098-68.392h-107.17zM720.852 243.764h-142.119l-5.471 68.392h153.301l-5.711-68.392zM930.816 380.548h-129.945l5.677 68.392h141.332l-17.064-68.392zM817.969 585.724h164.107l-17.098-68.392h-152.719l5.711 68.392zM562.285 448.94h175.665l-5.677-68.392h-164.517l-5.471 68.392zM385.731 312.156h118.865l5.471-68.392h-107.205l-17.132 68.392zM547.136 686.432c0 150.839-122.73 273.568-273.568 273.568s-273.568-122.73-273.568-273.568c0-150.839 122.73-273.568 273.568-273.568s273.568 122.73 273.568 273.568zM273.568 481.256c-113.155 0-205.176 92.022-205.176 205.176s92.022 205.176 205.176 205.176c113.155 0 205.176-92.022 205.176-205.176s-92.022-205.176-205.176-205.176zM376.156 720.628h-68.392v68.392c0 18.91-15.286 34.196-34.196 34.196s-34.196-15.286-34.196-34.196v-68.392h-68.392c-18.91 0-34.196-15.286-34.196-34.196s15.286-34.196 34.196-34.196h68.392v-68.392c0-18.91 15.286-34.196 34.196-34.196s34.196 15.286 34.196 34.196v68.392h68.392c18.91 0 34.196 15.286 34.196 34.196s-15.286 34.196-34.196 34.196zM444.548 141.176c-56.56 0-102.588-46.028-102.588-102.588s46.028-102.588 102.588-102.588c56.56 0 102.588 46.028 102.588 102.588s-46.028 102.588-102.588 102.588zM444.548 4.392c-18.876 0-34.196 15.32-34.196 34.196s15.32 34.196 34.196 34.196c18.876 0 34.196-15.32 34.196-34.196s-15.32-34.196-34.196-34.196zM889.097 141.176c-56.56 0-102.588-46.028-102.588-102.588s46.028-102.588 102.588-102.588c56.56 0 102.588 46.028 102.588 102.588s-46.028 102.588-102.588 102.588zM889.097 4.392c-18.876 0-34.196 15.32-34.196 34.196s15.32 34.196 34.196 34.196c18.876 0 34.196-15.32 34.196-34.196s-15.32-34.196-34.196-34.196z" horiz-adv-x="1334"/>
<glyph unicode="" d="M859.221 628.922h-83.151c-12.722 0-23.781-8.675-26.885-21.009l-105.629-422.461h-53.715l74.503 298.178c2.079 8.287 0.222 17.046-5.044 23.753-5.211 6.735-13.276 10.671-21.813 10.671h-609.771c-8.537 0-16.602-3.936-21.841-10.671-5.238-6.707-7.123-15.494-5.044-23.753l83.151-332.603c3.104-12.362 14.163-21.009 26.885-21.009h442.888c0.194 0 0.388 0 0.582 0s0.388 0 0.582 0h110.285c12.722 0 23.781 8.675 26.885 21.009l105.629 422.461h61.504c15.327 0 27.717 12.389 27.717 27.717s-12.389 27.717-27.717 27.717zM265.692 296.319l-4.601 55.434h143.019l-4.601-55.434h-133.817zM394.88 240.886l-4.629-55.434h-115.302l-4.629 55.434h124.56zM90.937 351.753h114.554l4.601-55.434h-105.296l-13.858 55.434zM256.462 407.187l-4.629 55.434h161.534l-4.629-55.434h-152.277zM459.71 351.753h114.554l-13.858-55.434h-105.296l4.601 55.434zM588.122 407.187h-123.784l4.629 55.434h133.013l-13.858-55.434zM196.233 462.621l4.629-55.434h-123.784l-13.858 55.434h133.013zM118.653 240.886h96.067l4.629-55.434h-86.837l-13.858 55.434zM445.851 185.452l4.629 55.434h96.067l-13.858-55.434h-86.837zM166.299 102.301c-45.844 0-83.151-37.307-83.151-83.151s37.307-83.151 83.151-83.151c45.844 0 83.151 37.307 83.151 83.151s-37.307 83.151-83.151 83.151zM166.299-8.566c-15.3 0-27.717 12.417-27.717 27.717s12.417 27.717 27.717 27.717c15.3 0 27.717-12.417 27.717-27.717s-12.417-27.717-27.717-27.717zM526.618 102.301c-45.844 0-83.151-37.307-83.151-83.151s37.307-83.151 83.151-83.151c45.844 0 83.151 37.307 83.151 83.151s-37.307 83.151-83.151 83.151zM526.618-8.566c-15.3 0-27.717 12.417-27.717 27.717s12.417 27.717 27.717 27.717c15.3 0 27.717-12.417 27.717-27.717s-12.417-27.717-27.717-27.717zM221.733 710.548v-83.151c0-30.599 24.834-53.909 55.434-53.909h110.868c30.599 0 55.434 23.31 55.434 53.909v83.151c21.314 0 40.744 12.195 49.974 31.431 9.23 19.18 6.624 42.019-6.68 58.621l-110.868 138.584c-10.505 13.166-26.47 20.815-43.294 20.815s-32.789-7.65-43.294-20.815l-110.868-138.584c-13.304-16.63-15.909-39.441-6.68-58.621 9.23-19.208 28.659-31.431 49.974-31.431zM332.6 906.091l110.868-138.584h-55.434v-138.584h-110.868v138.584h-55.434l110.868 138.584z" horiz-adv-x="887"/>
<glyph unicode="" d="M1269.756 960h-122.88c-18.801 0-35.144-12.82-39.731-31.048l-156.099-624.312h-79.38l110.1 440.648c3.072 12.247 0.328 25.19-7.455 35.103-7.7 9.953-19.62 15.77-32.236 15.77h-901.12c-12.616 0-24.535-5.816-32.276-15.77-7.741-9.912-10.527-22.897-7.455-35.103l122.88-491.52c4.547-18.268 20.931-31.048 39.731-31.048h654.5c0.287 0 0.573 0 0.86 0s0.573 0 0.86 0h162.98c18.801 0 35.144 12.82 39.731 31.048l156.099 624.312h90.89c22.651 0 40.96 18.309 40.96 40.96s-18.309 40.96-40.96 40.96zM392.68 468.48l-6.84 81.92h211.354l-6.84-81.92h-197.673zM583.553 386.56l-6.84-81.92h-170.394l-6.84 81.92h184.074zM134.386 550.4h169.247l6.84-81.92h-155.607l-20.48 81.92zM378.999 632.32l-6.84 81.92h238.633l-6.84-81.92h-224.952zM679.4 550.4h169.247l-20.48-81.92h-155.607l6.84 81.92zM869.127 632.32h-182.886l6.84 81.92h196.567l-20.521-81.92zM289.993 714.24l6.84-81.92h-182.927l-20.48 81.92h196.567zM175.346 386.56h141.967l6.84-81.92h-128.287l-20.521 81.92zM658.92 304.64l6.84 81.92h141.926l-20.48-81.92h-128.287zM245.756 181.76c-67.748 0-122.88-55.132-122.88-122.88s55.132-122.88 122.88-122.88c67.748 0 122.88 55.132 122.88 122.88s-55.132 122.88-122.88 122.88zM245.756 17.92c-22.569 0-40.96 18.35-40.96 40.96s18.391 40.96 40.96 40.96c22.569 0 40.96-18.35 40.96-40.96s-18.391-40.96-40.96-40.96zM778.236 181.76c-67.748 0-122.88-55.132-122.88-122.88s55.132-122.88 122.88-122.88c67.748 0 122.88 55.132 122.88 122.88s-55.132 122.88-122.88 122.88zM778.236 17.92c-22.569 0-40.96 18.35-40.96 40.96s18.391 40.96 40.96 40.96c22.61 0 40.96-18.35 40.96-40.96s-18.35-40.96-40.96-40.96z" horiz-adv-x="1311"/>
<glyph unicode="" d="M971.487 487.385h-53.301c-13.128 210.839-182.219 379.93-393.058 393.058v53.301c0 14.441-11.815 26.256-26.256 26.256s-26.256-11.815-26.256-26.256v-53.301c-210.839-13.128-379.93-182.219-393.058-393.058h-53.301c-14.441 0-26.256-11.815-26.256-26.256s11.815-26.256 26.256-26.256h53.301c13.128-210.839 182.193-379.93 393.058-393.058v-79.557c0-14.441 11.815-26.256 26.256-26.256s26.256 11.815 26.256 26.256v79.557c210.839 13.128 379.93 182.193 393.058 393.058h53.301c14.441 0 26.256 11.815 26.256 26.256s-11.815 26.256-26.256 26.256zM865.411 434.872c-12.866-181.694-158.589-327.417-340.283-340.283-8.665-0.788-17.329-1.050-26.256-1.050s-17.592 0.263-26.256 1.050c-181.694 12.866-327.417 158.589-340.283 340.283-0.788 8.665-1.050 17.329-1.050 26.256s0.263 17.592 1.050 26.256c12.866 181.694 158.589 327.417 340.283 340.283 8.665 0.788 17.329 1.050 26.256 1.050s17.592-0.263 26.256-1.050c181.694-12.866 327.417-158.589 340.283-340.283 0.788-8.665 1.050-17.329 1.050-26.256s-0.263-17.592-1.050-26.256zM525.128 669.604c-8.665 1.050-17.329 1.575-26.256 1.575s-17.592-0.525-26.256-1.575c-94.786-12.078-170.142-87.434-182.219-182.219-1.050-8.665-1.575-17.329-1.575-26.256s0.525-17.592 1.575-26.256c12.078-94.786 87.434-170.142 182.219-182.219 8.665-1.050 17.329-1.575 26.256-1.575s17.592 0.525 26.256 1.575c94.786 12.078 170.142 87.434 182.219 182.219 1.050 8.665 1.575 17.329 1.575 26.256s-0.525 17.592-1.575 26.256c-12.078 94.786-87.434 170.142-182.219 182.219zM654.047 434.872c-11.028-65.904-63.015-117.891-128.919-128.919-8.402-1.575-17.329-2.363-26.256-2.363s-17.854 0.788-26.256 2.363c-65.904 11.028-117.891 63.015-128.919 128.919-1.575 8.402-2.363 17.329-2.363 26.256s0.788 17.854 2.363 26.256c11.028 65.904 63.015 117.891 128.919 128.919 8.402 1.575 17.329 2.363 26.256 2.363s17.854-0.788 26.256-2.363c65.904-11.028 117.891-63.015 128.919-128.919 1.575-8.402 2.363-17.329 2.363-26.256s-0.788-17.854-2.363-26.256z" horiz-adv-x="998"/>
<glyph unicode="" d="M981.333 448c-23.595 0-42.667-19.072-42.667-42.667v-341.333c0-23.552-19.157-42.667-42.667-42.667h-768c-23.509 0-42.667 19.115-42.667 42.667v768c0 23.552 19.157 42.667 42.667 42.667h554.667c23.595 0 42.667 19.072 42.667 42.667s-19.072 42.667-42.667 42.667h-554.667c-70.571 0-128-57.429-128-128v-768c0-70.571 57.429-128 128-128h768c70.571 0 128 57.429 128 128v341.333c0 23.595-19.072 42.667-42.667 42.667zM1080.747 910.080c-66.603 66.56-174.933 66.56-241.493 0l-327.253-327.253-49.92 49.92c-66.56 66.56-174.933 66.56-241.493 0-66.56-66.603-66.56-174.933 0-241.493l170.667-170.667c33.28-33.28 77.227-49.92 120.747-49.92s87.467 16.64 120.747 49.92l448 448c66.603 66.56 66.603 174.933 0 241.493zM1020.16 729.173l-448-448c-16.64-16.64-38.4-25.173-60.16-25.173s-43.52 8.533-60.16 25.173l-170.667 170.667c-33.707 33.28-33.707 87.040 0 120.32 33.28 33.707 87.040 33.707 120.32 0l110.507-110.080 387.84 387.413c33.28 33.707 87.040 33.707 120.32 0 33.707-33.28 33.707-87.040 0-120.32z" horiz-adv-x="1131"/>
<glyph unicode="" d="M896-64h-768c-70.571 0-128 57.429-128 128v768c0 70.571 57.429 128 128 128h768c70.571 0 128-57.429 128-128v-768c0-70.571-57.429-128-128-128zM128 874.667c-23.509 0-42.667-19.115-42.667-42.667v-768c0-23.552 19.157-42.667 42.667-42.667h768c23.509 0 42.667 19.115 42.667 42.667v768c0 23.552-19.157 42.667-42.667 42.667h-768z"/>
<glyph unicode="" d="M970.105 690.526c0 103.99-84.642 188.632-188.632 188.632-38.616 0-75.291-11.507-106.361-32.93-36.999 69.363-109.272 113.772-190.060 113.772s-153.061-44.409-190.060-113.772c-31.070 21.423-67.746 32.93-106.361 32.93-103.99 0-188.632-84.642-188.632-188.632 0-85.261 56.913-157.427 134.737-180.682v-546.897c0-14.902 12.045-26.947 26.947-26.947h646.737c14.902 0 26.947 12.045 26.947 26.947v546.897c77.824 23.256 134.737 95.421 134.737 180.682zM188.632-10.105v80.842h592.842v-80.842h-592.842zM781.474 124.632h-592.842v377.263c38.616 0 75.291 11.507 106.361 32.93 36.999-69.363 109.272-113.772 190.060-113.772s153.061 44.409 190.060 113.772c31.070-21.423 67.746-32.93 106.361-32.93v-377.263zM781.474 555.789c-37.026 0-71.599 14.848-97.361 41.795-6.548 6.899-16.249 9.755-25.492 7.653-9.27-2.129-16.734-8.973-19.645-18.028-21.585-67.153-83.429-112.263-153.923-112.263s-132.339 45.11-153.923 112.263c-2.883 9.054-10.375 15.899-19.645 18.028-9.297 2.102-18.971-0.755-25.492-7.653-25.762-26.947-60.335-41.795-97.361-41.795-74.294 0-134.737 60.443-134.737 134.737s60.443 134.737 134.737 134.737c37.026 0 71.599-14.848 97.361-41.795 6.521-6.872 16.222-9.674 25.492-7.653 9.27 2.129 16.734 8.973 19.645 18.028 21.585 67.153 83.429 112.263 153.923 112.263s132.339-45.11 153.923-112.263c2.883-9.054 10.375-15.899 19.645-18.028 9.27-2.021 18.944 0.781 25.492 7.653 25.762 26.947 60.335 41.795 97.361 41.795 74.294 0 134.737-60.443 134.737-134.737s-60.443-134.737-134.737-134.737z" horiz-adv-x="970"/>
<glyph unicode="" d="M512 960c-282.325 0-512-229.675-512-512s229.675-512 512-512c282.325 0 512 229.675 512 512s-229.632 512-512 512zM512 21.333c-235.264 0-426.667 191.403-426.667 426.667s191.403 426.667 426.667 426.667c235.264 0 426.667-191.403 426.667-426.667s-191.403-426.667-426.667-426.667zM700.629 636.672c-16.683 16.683-43.648 16.683-60.331 0l-128.299-128.341-128.299 128.341c-16.683 16.683-43.648 16.683-60.331 0s-16.683-43.648 0-60.331l128.299-128.341-128.299-128.341c-16.683-16.683-16.683-43.648 0-60.331 8.32-8.32 19.243-12.501 30.165-12.501s21.845 4.181 30.165 12.501l128.299 128.341 128.299-128.341c8.32-8.32 19.243-12.501 30.165-12.501s21.845 4.181 30.165 12.501c16.683 16.683 16.683 43.648 0 60.331l-128.299 128.341 128.299 128.341c16.683 16.683 16.683 43.691 0 60.331z"/>
<glyph unicode="" d="M642.944 448l58.931 58.957c17.485 17.459 27.085 40.73 27.085 65.485 0 24.781-9.626 48.026-27.059 65.434-17.459 17.51-40.73 27.136-65.485 27.136s-48-9.626-65.485-27.11l-58.931-58.982-58.957 58.957c-17.485 17.485-40.678 27.11-65.331 27.11-24.678 0-47.923-9.677-65.254-27.034-17.638-17.485-27.341-40.73-27.341-65.536s9.754-48.128 27.238-65.459l58.778-58.957-58.701-58.88c-17.613-17.485-27.315-40.781-27.315-65.562 0-24.806 9.728-48.077 27.238-65.434 17.382-17.408 40.653-26.982 65.485-26.982 24.627 0 47.795 9.549 65.203 26.957l58.957 58.982 58.957-58.931c17.382-17.408 40.653-26.982 65.485-26.982 24.781 0 48.026 9.549 65.51 26.982 17.434 17.485 27.034 40.704 27.034 65.434 0 24.755-9.6 48.026-27.085 65.485l-58.957 58.931zM665.702 294.323c-7.757-7.706-18.125-11.955-29.286-11.955s-21.581 4.25-29.286 11.981l-95.13 95.13-95.155-95.155c-7.706-7.706-18.022-11.955-29.005-11.955-11.162 0-21.555 4.25-29.286 11.981-7.936 7.859-12.262 18.202-12.262 29.235s4.326 21.402 12.186 29.21l94.95 95.206-94.822 95.13c-7.987 7.91-12.288 18.278-12.288 29.312s4.326 21.376 12.186 29.158c7.885 7.91 18.227 12.211 29.235 12.211s21.325-4.301 29.133-12.109l95.13-95.181 95.155 95.155c7.808 7.808 18.202 12.109 29.286 12.109s21.453-4.301 29.235-12.109c7.834-7.808 12.109-18.176 12.109-29.261s-4.275-21.478-12.083-29.286l-95.181-95.13 95.155-95.155c7.808-7.808 12.083-18.202 12.083-29.286s-4.275-21.427-12.058-29.235zM512-64c-282.317 0-512 229.683-512 512s229.683 512 512 512c282.291 0 512-229.683 512-512s-229.709-512-512-512zM512 908.8c-254.080 0-460.8-206.72-460.8-460.8s206.72-460.8 460.8-460.8c254.106 0 460.8 206.72 460.8 460.8s-206.694 460.8-460.8 460.8z"/>
<glyph unicode="" d="M512 960c-282.778 0-512-229.222-512-512s229.222-512 512-512c282.778 0 512 229.222 512 512s-229.222 512-512 512zM512-12.8c-254.080 0-460.8 206.694-460.8 460.8s206.72 460.8 460.8 460.8c254.106 0 460.8-206.694 460.8-460.8s-206.694-460.8-460.8-460.8zM690.816 694.758c0 61.542-50.074 111.642-111.616 111.642-61.594 0-111.693-50.099-111.693-111.642 0-16.768 3.738-32.691 10.394-47.002-43.93-14.413-84.762-48.845-95.027-57.958-6.81-5.427-30.464-25.139-52.71-54.528-25.293-33.459-17.971-60.8-11.341-74.138 10.496-21.069 32.742-34.176 58.061-34.176 2.79 0 5.555 0.154 8.294 0.461-13.722-36.275-29.901-78.259-44.186-111.974-24.883-58.854-12.902-97.152 1.536-118.912 18.125-27.341 48.768-42.394 86.298-42.394 8.243 0 16.845 0.742 25.6 2.227 49.459 8.346 106.189 42.112 168.576 100.301 47.846 44.595 36.045 87.45 31.309 99.533-9.395 23.885-31.078 39.296-55.219 39.296-0.358 0-0.691 0-1.050 0 29.030 74.931 42.829 121.805 44.621 151.91 0.947 16-2.381 32.922-11.443 48.538 35.43 18.765 59.597 56.013 59.597 98.816zM599.066 344.294c8.269 0 19.251-21.99-10.982-50.176s-89.318-78.336-142.234-87.27c-5.965-0.998-11.674-1.51-17.075-1.51-42.496 0-65.664 31.002-40.653 90.138 28.186 66.662 63.232 163.558 73.523 189.67 8.73 22.118 15.974 63.462 0.87 63.462-2.714 0-6.17-1.357-10.496-4.403-28.186-19.891-54.272-53.581-62.541-61.85-2.637-2.662-7.706-4.224-12.646-4.224-10.445 0-20.352 7.066-5.888 26.214 21.325 28.16 44.672 46.054 44.672 46.054 13.107 12.442 65.69 52.506 98.534 52.506 1.562 0 3.072-0.102 4.531-0.282 32.307-4.122 74.906-17.869 72.858-52.224-2.074-34.355-29.901-107.213-41.933-138.138-12.058-30.899-37.837-103.040-40.55-111.974-1.946-6.323-1.818-26.394 10.112-26.394 4.915 0 11.853 3.43 21.478 12.621 33.050 31.693 50.227 57.779 58.419 57.779zM579.2 634.266c-33.434 0-60.493 27.085-60.493 60.467s27.085 60.442 60.493 60.442c33.382 0 60.416-27.085 60.416-60.442 0-33.382-27.034-60.467-60.416-60.467z"/>
<glyph unicode="" d="M512 960c-282.325 0-512-229.675-512-512s229.675-512 512-512c282.325 0 512 229.675 512 512s-229.632 512-512 512zM512 21.333c-235.264 0-426.667 191.403-426.667 426.667s191.403 426.667 426.667 426.667c235.264 0 426.667-191.403 426.667-426.667s-191.403-426.667-426.667-426.667zM725.333 493.013h-426.667c-23.595 0-42.667-19.072-42.667-42.667s19.072-42.667 42.667-42.667h426.667c23.595 0 42.667 19.072 42.667 42.667s-19.072 42.667-42.667 42.667z"/>
<glyph unicode="" d="M703.639 568.471h-383.277c-66.44 0-120.471-54.061-120.471-120.471s54.031-120.471 120.471-120.471h383.307c66.44 0 120.471 54.061 120.471 120.471s-54.061 120.471-120.501 120.471zM703.639 387.765h-383.277c-33.25 0-60.235 26.985-60.235 60.235s26.985 60.235 60.235 60.235h383.307c33.25 0 60.235-26.985 60.235-60.235s-26.985-60.235-60.265-60.235zM512 960c-282.805 0-512-229.225-512-512s229.195-512 512-512c282.805 0 512 229.225 512 512s-229.195 512-512 512zM512-3.765c-249.103 0-451.765 202.662-451.765 451.765s202.662 451.765 451.765 451.765c249.103 0 451.765-202.662 451.765-451.765s-202.662-451.765-451.765-451.765z"/>
<glyph unicode="" d="M512 960c-282.325 0-512-229.675-512-512s229.675-512 512-512c282.325 0 512 229.675 512 512s-229.632 512-512 512zM512 21.333c-235.264 0-426.667 191.403-426.667 426.667s191.403 426.667 426.667 426.667c235.264 0 426.667-191.403 426.667-426.667s-191.403-426.667-426.667-426.667zM725.333 490.667h-170.667v170.667c0 23.595-19.072 42.667-42.667 42.667s-42.667-19.072-42.667-42.667v-170.667h-170.667c-23.595 0-42.667-19.072-42.667-42.667s19.072-42.667 42.667-42.667h170.667v-170.667c0-23.595 19.072-42.667 42.667-42.667s42.667 19.072 42.667 42.667v170.667h170.667c23.595 0 42.667 19.072 42.667 42.667s-19.072 42.667-42.667 42.667z"/>
<glyph unicode="" d="M703.639 568.471h-71.168v71.168c0 66.409-54.061 120.471-120.471 120.471-66.44 0-120.471-54.061-120.471-120.471v-71.168h-71.168c-66.44 0-120.471-54.061-120.471-120.471s54.031-120.471 120.471-120.471h71.168v-71.168c0-66.409 54.031-120.471 120.471-120.471 66.409 0 120.471 54.061 120.471 120.471v71.168h71.168c66.44 0 120.471 54.061 120.471 120.471s-54.031 120.471-120.471 120.471zM703.639 387.765h-131.403v-131.403c0-33.25-26.985-60.235-60.235-60.235s-60.235 26.985-60.235 60.235v131.403h-131.403c-33.25 0-60.235 26.985-60.235 60.235s26.985 60.235 60.235 60.235h131.403v131.403c0 33.25 26.985 60.235 60.235 60.235s60.235-26.985 60.235-60.235v-131.403h131.403c33.25 0 60.235-26.985 60.235-60.235s-26.955-60.235-60.235-60.235zM512 960c-282.805 0-512-229.225-512-512s229.195-512 512-512c282.805 0 512 229.225 512 512s-229.195 512-512 512zM512-3.765c-249.103 0-451.765 202.662-451.765 451.765s202.662 451.765 451.765 451.765c249.103 0 451.765-202.662 451.765-451.765s-202.662-451.765-451.765-451.765z"/>
<glyph unicode="" d="M512-64c-282.317 0-512 229.683-512 512s229.683 512 512 512c282.291 0 512-229.683 512-512s-229.709-512-512-512zM512 908.8c-254.080 0-460.8-206.72-460.8-460.8s206.72-460.8 460.8-460.8c254.106 0 460.8 206.72 460.8 460.8s-206.694 460.8-460.8 460.8zM446.541 217.6c-24.704 0-47.923 9.626-65.357 27.11l-123.725 123.75c-17.434 17.382-27.059 40.602-27.059 65.254 0 24.704 9.6 47.898 27.085 65.357 34.79 34.893 95.77 34.918 130.637-0.026l58.419-58.394 164.429 164.378c34.816 34.893 95.77 34.918 130.662-0.026 17.434-17.408 27.059-40.576 27.059-65.28 0-24.678-9.626-47.872-27.085-65.331l-229.734-229.734c-17.408-17.434-40.627-27.059-65.331-27.059zM322.79 474.957c-11.008 0-21.325-4.275-29.082-12.058-7.834-7.834-12.109-18.15-12.109-29.158s4.275-21.325 12.058-29.082l123.75-123.802c15.539-15.59 42.726-15.565 58.214-0.026l229.76 229.76c7.808 7.808 12.083 18.125 12.083 29.133s-4.275 21.325-12.083 29.082c-15.539 15.642-42.701 15.59-58.189 0.051l-200.653-200.602-94.643 94.618c-7.782 7.808-18.099 12.083-29.107 12.083z"/>
<glyph unicode="" d="M789.68 316.343c0 7.665-2.75 15.214-8.426 20.802l-79.082 78.204v367.499c0 48.45-40.17 89.381-87.771 89.381h-146.286v58.514c0 16.15-13.078 29.257-29.257 29.257h-175.543c-16.15 0-29.257-13.107-29.257-29.257v-58.514h-146.286c-47.543 0-87.771-40.931-87.771-89.381v-700.445c0-48.45 39.38-87.888 87.771-87.888h268.756c12.112-33.997 44.295-58.514 82.33-58.514h263.314c48.391 0 87.771 39.439 87.771 87.888v292.454h-0.263zM689.503 345.6h-45.846v45.319l45.846-45.319zM292.571 901.486h117.029v-29.257h-117.029v29.257zM234.057 813.714h292.571v-89.381c0-15.506-12.844-27.648-29.257-27.648h-292.571c-16.413 0-29.257 12.142-29.257 27.648v89.381h58.514zM58.514 82.403v700.445c0 16.443 13.692 30.866 29.257 30.866h29.257v-89.381c0-47.514 39.38-86.162 87.771-86.162h292.571c48.391 0 87.771 38.649 87.771 86.162v89.381h29.257c15.594 0 29.257-14.424 29.257-30.866v-309.628l-8.689 8.572c-5.559 5.53-12.99 8.163-20.568 8.163v1.931h-175.543c-47.543 0-87.771-40.931-87.771-89.381v-349.477h-263.314c-16.121 0-29.257 13.166-29.257 29.374zM702.171-5.486h-263.314c-16.121 0-29.257 13.166-29.257 29.374v378.617c0 16.443 13.692 30.866 29.257 30.866h146.286v-117.029c0-16.179 13.107-29.257 29.257-29.257h117.029v-263.197c0-16.208-13.107-29.374-29.257-29.374z" horiz-adv-x="790"/>
<glyph unicode="" d="M258.768 351.135c-11.043-26.845-26.845-51.754-45.388-70.296l-87.732-87.732c-6.365-6.365-14.668-26.845-14.945-35.702v-84.688c26.015-11.347 85.241-26.015 166.054-26.015s140.039 14.668 166.054 26.015v84.688c-0.277 8.856-8.579 29.336-14.945 35.702l-87.732 87.732c-18.543 18.543-34.318 43.451-45.388 70.296h-35.978zM418.456 536.839l87.732 87.732c26.569 26.569 47.325 76.662 47.325 114.024v110.703c0 1.937 0 3.875-0.554 5.535-6.642 72.234-146.128 105.168-276.203 105.168s-269.561-32.934-276.203-105.168c-0.554-1.661-0.554-3.598-0.554-5.535v-110.703c0-37.362 20.757-87.455 47.325-114.024l87.732-87.732c16.329-16.329 30.997-52.030 30.997-75.001v-27.676c0-22.971-14.668-58.672-30.997-75.001l-87.732-87.732c-26.569-26.569-47.325-76.662-47.325-114.024v-110.703c0-1.937 0-3.875 0.554-5.535 6.642-72.234 146.128-105.168 276.203-105.168s269.561 32.934 276.203 105.168c0.554 1.661 0.554 3.598 0.554 5.535v110.703c0 37.362-20.757 87.455-47.325 114.024l-87.732 87.732c-16.329 16.329-30.997 52.030-30.997 75.001v27.676c0 22.971 14.668 58.672 30.997 75.001zM276.757 904.649c145.297 0 221.405-41.237 221.405-55.351s-76.108-55.351-221.405-55.351c-145.297 0-221.405 41.237-221.405 55.351s76.108 55.351 221.405 55.351zM379.434 575.862c-26.569-26.569-47.325-76.662-47.325-114.024v-27.676c0-37.362 20.757-87.455 47.325-114.024l87.732-87.732c16.329-16.329 30.997-52.030 30.997-75.001v-110.703c0-14.115-76.108-55.351-221.405-55.351s-221.405 41.237-221.405 55.351v110.703c0 22.971 14.668 58.672 30.997 75.001l87.732 87.732c26.569 26.569 47.325 76.662 47.325 114.024v27.676c0 37.362-20.757 87.455-47.325 114.024l-87.732 87.732c-16.329 16.329-30.997 52.030-30.997 75.001v40.406c53.968-27.399 139.485-40.406 221.405-40.406s167.438 13.008 221.405 40.406v-40.406c0-22.971-14.668-58.672-30.997-75.001l-87.732-87.732z" horiz-adv-x="554"/>
<glyph unicode="" d="M512 832c-211.744 0-384-172.256-384-384s172.256-384 384-384c211.744 0 384 172.256 384 384s-172.256 384-384 384zM512 128c-176.448 0-320 143.552-320 320s143.552 320 320 320c176.448 0 320-143.552 320-320s-143.552-320-320-320zM512 960c-282.304 0-512-229.696-512-512s229.696-512 512-512c282.304 0 512 229.696 512 512s-229.696 512-512 512zM512 0c-247.040 0-448 200.96-448 448s200.96 448 448 448c247.040 0 448-200.96 448-448s-200.96-448-448-448zM544 461.312v180.448c0 17.696-14.336 32-32 32s-32-14.304-32-32v-193.76c0-8.544 3.392-16.672 9.44-22.72l128-127.136c6.24-6.176 14.4-9.28 22.56-9.28 8.224 0 16.448 3.168 22.688 9.44 12.48 12.576 12.416 32.8-0.128 45.28l-118.56 117.728z"/>
</font>
</defs>
</svg>
